<?xml version="1.0" standalone="no"?>
<!DOCTYPE svg PUBLIC "-//W3C//DTD SVG 1.1//EN" "http://www.w3.org/Graphics/SVG/1.1/DTD/svg11.dtd" >
<svg>
<metadata>
Created by FontForge 20090914 at Tue May 12 08:03:05 2020
 By www-data
More Services
</metadata>
<defs>
<font id="KrutiDev010" horiz-adv-x="492" >
  <font-face 
    font-family="Kruti Dev 010"
    font-weight="400"
    font-stretch="normal"
    units-per-em="1000"
    panose-1="0 0 0 0 0 0 0 0 0 0"
    ascent="800"
    descent="-200"
    x-height="213"
    cap-height="515.999"
    bbox="-526 -247.999 826 801"
    underline-thickness="20"
    underline-position="-123"
    unicode-range="U+0020-U+2122"
  />
<missing-glyph horiz-adv-x="801" 
d="M50 0v801h701v-801h-701zM701 50v701h-601v-701h601z" />
    <glyph glyph-name=".notdef" horiz-adv-x="801" 
d="M50 0v801h701v-801h-701zM701 50v701h-601v-701h601z" />
    <glyph glyph-name="space" unicode=" " horiz-adv-x="379" 
 />
    <glyph glyph-name="exclam" unicode="!" horiz-adv-x="300" 
d="M215 176h-45l-8 494h61zM164 0v61h63v-61h-63z" />
    <glyph glyph-name="quotedbl" unicode="&#x22;" horiz-adv-x="229" 
d="M230 146c-38.667 0 -73.333 11.667 -104 35s-46 55 -46 95v199h-80v41h234v-41h-93l183 -190v-101c-22 -25.333 -53.333 -38 -94 -38zM133.001 434v-159c0 -28 8.66699 -48.667 26 -62c2 -2 6 -4.5 12 -7.5s12 -6.16699 18 -9.5c11.333 -4 23 -6 35 -6l27 3l27 9l23 15
l17 20z" />
    <glyph glyph-name="numbersign" unicode="#" horiz-adv-x="541" 
d="M289 475v-125.002l28 15l34 12l32 5c31.333 0 58.666 -12.167 81.999 -36.5s35 -51.166 35 -80.499c0 -19.333 -3.83301 -39.166 -11.5 -59.499s-17.834 -38.833 -30.501 -55.5l-18 -23l-24 -26l-37 34l20 19l15 17c6.66699 8 15.334 24 26.001 48c6 15.333 9 32 9 50
c0 22.667 -6.66699 40.667 -20 54c-14.667 11.333 -32 17 -52 17c-21.333 0 -37.666 -3 -48.999 -9c-8.66699 -2 -16 -5.66699 -22 -11l-19 -16l-2 -6l-1 -5l-2 -5l-2 -3c-4 -7.33301 -10.333 -13.333 -19 -18l-27 -12l-13 -3l-15 -1l-14 -2h-10l6 -12l19 -28l24 -36l23 -30
l27 -34l76 -85l-43 -28l-26 27l-35 42l-46 57l-43 61l-49 72l-35 59l-10 19l-9 20l43 22l37 -64l8 -9l14 -8l16 -6l16 -2c14 0 26.333 7.33301 37 22l3 15l1 26v126h-236v41h549v-41h-260z" />
    <glyph glyph-name="dollar" unicode="$" horiz-adv-x="553" 
d="M293 234v-234h-43v234h-236v43h236v239h43v-239h238v-43h-238z" />
    <glyph glyph-name="percent" unicode="%" horiz-adv-x="168" 
d="M51 367v67h70v-67h-70zM51 80v68h70v-68h-70z" />
    <glyph glyph-name="ampersand" unicode="&#x26;" horiz-adv-x="553" 
d="M14 234v43h513v-43h-513z" />
    <glyph glyph-name="quotesingle" unicode="'" horiz-adv-x="371" 
d="M297 475c9.33301 -8.66699 16.333 -17.667 21 -27l16 -29l9 -31l4 -32c0 -36 -10.667 -70.167 -32 -102.5s-48 -55.166 -80 -68.499c-22.667 -9.33301 -46.334 -14 -71.001 -14l166 -138l-35 -35l-240 203l35 35l33 -27l6 -2h6l26 1c19.333 2 38 8 56 18l31 21l24 25
l16 27l5 21l2 29l-15 -13l-12 -9c-10 -8 -21.333 -14 -34 -18l-31 -5c-32 0 -58.667 10.333 -80 31c-11.333 10 -20.166 21.5 -26.499 34.5s-9.5 26.5 -9.5 40.5c0 21.333 9.33301 42.666 28 63.999l-115 1v41h371v-41h-74zM280 422c-2 6.66699 -4.66602 12 -7.99902 16
c-16 25.333 -38.333 38 -67 38c-12 0 -21 -1.66699 -27 -5c-14.667 -4 -25.667 -15 -33 -33l-4 -23c0 -20 6.33301 -36.333 19 -49s29 -19 49 -19c21.333 0 41.666 9 60.999 27l8 11l11 16z" />
    <glyph glyph-name="parenleft" unicode="(" horiz-adv-x="180" 
d="M82 264v58h64v-58h-64zM78 -94h-45l45 151h67z" />
    <glyph glyph-name="parenright" unicode=")" horiz-adv-x="625" 
d="M523 475v-137.004h-195c-10 0 -19 -1.33301 -27 -4s-15.667 -7 -23 -13c-4.66699 -3.33301 -9.33398 -11 -14.001 -23l-4 -31c0 -52 29.667 -90 89 -114c9.33301 -2.66699 18.166 -4.66699 26.499 -6s17.833 -2 28.5 -2l11 1l15 2l12 2l5 1l-1 9
c0 6.66699 1.66699 12.667 5 18c10 36.667 28.333 55 55 55l19 -3c4.66699 -2 9.33398 -5.33301 14.001 -10l8 -16c2 -5.33301 3 -11.666 3 -18.999c0 -27.333 -11 -48.666 -33 -63.999l-21 -5l4 -18l3 -12l7 -29l8 -25l43 -114h-55l-27 86
c-2 -7.33301 -8.66699 -13.666 -20 -18.999l-43 -21l-42 -12c-12 -3.33301 -26 -5 -42 -5c-44 0 -78 17.333 -102 52l-10 20l-9 31l-51 4l-35 7c-26 4.66699 -47.667 17.334 -65 38.001c-14 16 -21 37.333 -21 64c0 21.333 7 43 21 65c6 8 14.167 14.167 24.5 18.5
s21.833 7.16602 34.5 8.49902c12 0 21.833 -1.16699 29.5 -3.5s15.834 -7.16602 24.501 -14.499l14 -16l6 -5l-27 -25l-8 6l-5 5l-16 9l-16 3l-17 -3l-11 -8l-7 -14l-4 -16c0 -16 5.5 -30.5 16.5 -43.5s26.5 -22.5 46.5 -28.5l50 -14l9 -1h4c4 0 7.66699 1 11 3l3 6l3 5
l7 11l8 10l8 7l11 8l10 6l8 3l-21 17l-13 16c-15.333 18.667 -26 40 -32 64l-2 25c0 36.667 9.5 64 28.5 82s42.833 27 71.5 27l162 1v98h-471v41h629v-41h-106zM455 110.996l-7 -2.00098l-16 -1l-17 -2h-11l-21 1l-36 7l-15 4l-22 -7l-15 -6
c-24.667 -13.333 -37 -31.666 -37 -54.999c0 -16.667 7.33301 -32 22 -46l25 -11l31 -5c9.33301 0 19.5 1.5 30.5 4.5s20.833 5.83301 29.5 8.5s16 6 22 10l37 21l16 14z" />
    <glyph glyph-name="asterisk" unicode="*" horiz-adv-x="203" 
d="M94 449h-43l43 143h58z" />
    <glyph glyph-name="plus" unicode="+" horiz-adv-x="2" 
d="M-258 -113v56h59v-56h-59z" />
    <glyph glyph-name="comma" unicode="," horiz-adv-x="445" 
d="M379 475v-188c0 -20 -7 -37 -21 -51c-6 -7.33301 -13.667 -13.666 -23 -18.999l-26 -11l-38 30c13.333 0 26 6.33301 38 19l12 21l5 22v177h-189v-246l240 -229l9 -18l3 -21c0 -22.667 -12.667 -41.334 -38 -56.001l-16 -4l-22 -6l-45 44l7 -2l16 -1l6 1h6l5 2l6 1l9 4
l9 7l1 3l2 3l2 8c0 10 -5 19 -15 27l-3 3l-5 3l-232 219v258h-82v41h447v-41h-68z" />
    <glyph glyph-name="hyphen" unicode="-" horiz-adv-x="168" 
d="M51 0v66h70v-66h-70z" />
    <glyph glyph-name="period" unicode="." horiz-adv-x="361" 
d="M330 475l-0.00195312 -174.001c0 -21.333 -2.66699 -38.666 -8 -51.999c-12 -34 -32.333 -56 -61 -66c-16 -5.33301 -32.667 -8 -50 -8c-21.333 0 -37.666 2.66699 -48.999 8c-31.333 14 -53.666 36 -66.999 66c-6 14 -9 29.667 -9 47v179h-86v41h369v-41h-39z
M276.998 474.999l-138 -0.00195312v-178c0 -23.333 5.66699 -42.666 17 -57.999c12 -18 29 -27 51 -27c24 0 42.333 9.33301 55 28c3.33301 4.66699 7 13.334 11 26.001l4 34v175z" />
    <glyph glyph-name="slash" unicode="/" horiz-adv-x="273" 
d="M248 475v41h30v-41h-30zM341 158l-35.998 -25.001c-38.667 -26.667 -82.334 -40 -131.001 -40c-31.333 0 -60.666 10.167 -87.999 30.5s-41 45.833 -41 76.5c0 22 8.33301 43.667 25 65l10 10l16 13c-20.667 10 -41 27.333 -61 52l-20 36
c-3.33301 12.667 -5.66602 25 -6.99902 37c0 30 9.33301 54.333 28 73s43 28 73 28c41.333 0 69.666 -16 84.999 -48c3.33301 -8.66699 5.66602 -18.667 6.99902 -30v-30h-45v31c0 26.667 -15 40 -45 40c-14 0 -26.333 -6.33301 -37 -19l-10 -20l-3 -23
c0 -25.333 7 -47 21 -65c5.33301 -7.33301 10 -13 14 -17s9.16699 -8.5 15.5 -13.5s14.166 -8.16699 23.499 -9.5l34 10l39 4l18 -1l20 -2l22 -38l-67 -3c-19.333 0 -32.333 -1.66699 -39 -5c-41.333 -9.33301 -62 -33.666 -62 -72.999c0 -28.667 17.667 -50 53 -64l31 -4
c40 0 81 15.667 123 47l22 20l26 28v-53c0 -5.33301 -4.66699 -11.333 -14 -18z" />
    <glyph glyph-name="zero" unicode="0" horiz-adv-x="389" 
d="M33 325c2.66699 16.667 4.83301 29.3311 6.5 37.998s4.16699 17.334 7.5 26.001l10 25l13 22l14 20l17 17c26.667 19.333 57 29 91 29c18.667 0 31.667 -1.66699 39 -5c11.333 0 22.333 -3.66699 33 -11c11.333 -5.33301 20.333 -12 27 -20l23 -27l17 -37l14 -40l8 -50
l3 -77c0 -13.333 -0.333008 -26.166 -1 -38.499s-2 -23.833 -4 -34.5c-10 -61.333 -32 -108 -66 -140c-21.333 -20 -52.333 -30 -93 -30c-78 0 -128 43.667 -150 131c-8.66699 36.667 -13 77.667 -13 123v35zM119.999 83.9971c8 -12.667 18.832 -23 32.499 -31
s26.834 -12 39.501 -12c13.333 0 26 3.16699 38 9.5s23 16.833 33 31.5c20 28 30 82.667 30 164c0 42 -2.66699 76 -8 102c-8 44 -26 75 -54 93c-13.333 6.66699 -26.333 10 -39 10c-28 0 -50 -11.167 -66 -33.5s-26.667 -59.833 -32 -112.5l-2 -59
c0 -81.333 9.33301 -135.333 28 -162z" />
    <glyph glyph-name="one" unicode="1" horiz-adv-x="389" 
d="M199 0l-0.000976562 392c-8 -8.66699 -16.333 -16 -25 -22l-50 -32l-16 -8l-16 -7l-16 -6v60c12.667 4.66699 28.334 12.667 47.001 24l41 33c10.667 8.66699 22 20 34 34l23 34l40 1v-503h-62z" />
    <glyph glyph-name="two" unicode="2" horiz-adv-x="389" 
d="M352 0h-330.999c0 10.667 0.666992 17.667 2 21l6 21c5.33301 18.667 18.666 40.667 39.999 66l15 18l17 17l48 41l66 58l43 46c13.333 17.333 22.666 36.333 27.999 57l2 19c0 22.667 -8.16699 42.834 -24.5 60.501s-39.5 26.5 -69.5 26.5
c-46 0 -76.333 -19.667 -91 -59c-4.66699 -14 -7 -28 -7 -42l-63 8c4 45.333 19.833 80.666 47.5 105.999s65.834 38 114.501 38c46 0 83.5 -13 112.5 -39s43.5 -59.333 43.5 -100l-1 -17l-1 -13c0 -4 -1.33301 -8.33301 -4 -13l-5 -14l-8 -16l-10 -16l-12 -17l-12 -14
l-40 -41l-54 -48l-46 -38l-26 -25l-26 -32h246v-59z" />
    <glyph glyph-name="three" unicode="3" horiz-adv-x="389" 
d="M91 141c3.33301 -20.667 8.66699 -37.667 16 -51c7.33301 -17.333 23.333 -32 48 -44l34 -5c28.667 0 53 10 73 30s30 44.667 30 74c0 14 -2.66699 27.333 -8 40c-4 14 -10.333 24 -19 30l-16 12l-16 9l-18 5l-21 2c-10 0 -17 -0.666992 -21 -2l-23 -5l7 55l10 -1h19
l18 4c29.333 11.333 48.333 25.666 57 42.999c5.33301 10.667 8 22.667 8 36c0 9.33301 -2 19.666 -6 30.999c-8 31.333 -33 47 -75 47c-26 0 -46.333 -7.33301 -61 -22c-13.333 -11.333 -23.333 -33.666 -30 -66.999l-61 11c6 40 22.667 71.5 50 94.5
s60.666 34.5 99.999 34.5c17.333 0 30.333 -1.66699 39 -5c24 -2 46 -12.667 66 -32c3.33301 -3.33301 7.83301 -8.83301 13.5 -16.5s10.834 -15.167 15.501 -22.5l12 -37l1 -17c0 -12 -1.66699 -22.333 -5 -31c-3.33301 -16 -15 -33.333 -35 -52l-29 -18
c17.333 -4 30.333 -9.66699 39 -17c36.667 -19.333 55 -55 55 -107c0 -43.333 -15.833 -80.166 -47.5 -110.499s-72.167 -45.5 -121.5 -45.5c-55.333 0 -98 19.333 -128 58c-17.333 22 -28 49.333 -32 82z" />
    <glyph glyph-name="four" unicode="4" horiz-adv-x="389" 
d="M226 120h-217v56l228 325h51v-325h68v-56h-68v-120h-62v120zM226 402l-157 -226h157v226z" />
    <glyph glyph-name="five" unicode="5" horiz-adv-x="389" 
d="M94 136c6 -47.333 26.665 -77.001 61.998 -89.001c10 -4 21.333 -6 34 -6c24.667 0 49.667 11 75 33c20.667 24.667 31 54.334 31 89.001c0 19.333 -2.66699 34.666 -8 45.999c-6 20 -18.667 36.333 -38 49s-39.666 19 -60.999 19h-12c-16 0 -30 -4.66699 -42 -14l-11 -8
l-10 -7l-9 -9l-7 -10l-58 8l48 257h249v-59h-199l-27 -134l22 12l23 10l23 6l26 2c12.667 0 23.5 -0.666992 32.5 -2s20.167 -4.66602 33.5 -9.99902c35.333 -14.667 61.666 -42.667 78.999 -84c7.33301 -20.667 11 -42.667 11 -66c0 -46 -13.333 -85.333 -40 -118
c-32 -39.333 -75.667 -59 -131 -59c-45.333 0 -82.166 12.167 -110.499 36.5s-45.166 58.5 -50.499 102.5z" />
    <glyph glyph-name="six" unicode="6" horiz-adv-x="389" 
d="M287 374l-6.99902 22.999l-7 15l-9 13c-7.33301 7.33301 -15.333 12.833 -24 16.5s-15.334 6.16699 -20.001 7.5s-10.667 2 -18 2c-30 0 -56 -14 -78 -42l-7 -12l-12 -24l-8 -23l-5 -27l-4 -32l-1 -34c14 22.667 31.667 39.334 53 50.001l34 12l35 5
c30 0 57.333 -9 82 -27s43 -42 55 -72c3.33301 -8.66699 6 -18.5 8 -29.5s3 -22.5 3 -34.5c0 -7.33301 -0.333008 -14.833 -1 -22.5s-2 -15.5 -4 -23.5c-6 -29.333 -19.333 -55 -40 -77l-31 -26c-25.333 -13.333 -52.333 -20 -81 -20c-50 0 -91.667 18 -125 54
c-24 27.333 -39 69 -45 125l-3 62c0 97.333 17.667 168 53 212c30 38 72 57 126 57c20 0 39 -3 57 -9c37.333 -13.333 63.333 -40 78 -80l8 -35zM98.001 143.999l2 -14l4 -15l7 -15l15 -24l21 -19l25 -12l27 -4c50.667 0 81.667 30 93 90l2 27
c0 36 -9.16699 63.667 -27.5 83s-41.5 29 -69.5 29c-16 0 -29 -2.66699 -39 -8c-30 -12 -49.667 -38 -59 -78l-2 -23z" />
    <glyph glyph-name="seven" unicode="7" horiz-adv-x="389" 
d="M33 495h325v-48l-24 -28l-23 -31l-24 -36l-24 -42l-24 -44l-19 -42l-8 -21l-8 -20l-7 -21l-17 -60l-7 -35l-5 -34l-1 -33h-64c0 10.667 0.333008 21.167 1 31.5s2 20.5 4 30.5l7 38c6 36 18.333 76.667 37 122c13.333 33.333 26 60.333 38 81l21 37l21 34l22 32l25 28
l-246 1v60z" />
    <glyph glyph-name="eight" unicode="8" horiz-adv-x="389" 
d="M67 311c-6.66699 8.66699 -11.666 18.3369 -14.999 29.0039l-4 33c0 13.333 0.666992 22 2 26l7 23l12 22l18 21c28 24.667 63 37 105 37c44.667 0 80.167 -12.5 106.5 -37.5s39.5 -56.167 39.5 -93.5c0 -14.667 -1.66699 -25.334 -5 -32.001c-2 -13.333 -9 -26 -21 -38
s-28 -22 -48 -30c16.667 -4 30 -10.667 40 -20c21.333 -13.333 37 -34.666 47 -63.999c2 -8 3.66699 -15.333 5 -22s2 -14.334 2 -23.001c0 -12.667 -0.666992 -23.334 -2 -32.001s-4.33301 -18.334 -9 -29.001c-16 -38 -44.667 -64 -86 -78
c-10 -3.33301 -20.833 -6 -32.5 -8s-23.5 -3 -35.5 -3c-51.333 0 -90.333 13.667 -117 41c-12.667 12.667 -24.334 29.667 -35.001 51c-8 20 -12 40 -12 60l1 24c0 8.66699 1.33301 15.667 4 21l3 9l5 10l5 9l6 9c12 18 35.667 33 71 45
c-25.333 7.33301 -44.333 20.666 -57 39.999zM116.001 342.003c10 -22 24.001 -36 42.001 -42c12 -4 24 -6 36 -6c23.333 0 42.666 7.66699 57.999 23l17 24c4 9.33301 6 19.333 6 30c0 20 -8 39 -24 57l-28 17c-8 4 -18 6 -30 6c-23.333 0 -43 -7.66699 -59 -23
c-11.333 -11.333 -19 -29 -23 -53c0 -13.333 1.66699 -24.333 5 -33zM95.002 118.003l9 -25l15 -23l21 -16l25 -10l29 -3c30 0 54.333 9.66699 73 29s28 43.333 28 72c0 16 -2.66699 29.333 -8 40c-8 24 -26.667 42.333 -56 55c-14 4.66699 -27 7 -39 7
c-16 0 -29.333 -2.66699 -40 -8c-24 -8 -41.667 -26 -53 -54c-4.66699 -15.333 -7 -28 -7 -38z" />
    <glyph glyph-name="nine" unicode="9" horiz-adv-x="389" 
d="M97 121c2 -14.667 5.66504 -27.3359 10.998 -38.0029c6 -15.333 19.667 -28 41 -38l32 -4l27 3c8.66699 2 16.334 5.66699 23.001 11l19 15c6 4 11 10 15 18l6 11l6 14l5 15l6 19l7 37l2 38v14c-16.667 -28.667 -44.667 -49.667 -84 -63l-36 -4
c-40.667 0 -75.667 14.333 -105 43c-14 14.667 -24.667 31.834 -32 51.501s-11 42.834 -11 69.501s3.66699 49.334 11 68.001c12 30 31.333 54.333 58 73s56.334 28 89.001 28c10.667 0 18.667 -0.666992 24 -2c6.66699 0 13.667 -1.66699 21 -5l22 -7l22 -12
c10 -6 21.667 -16.667 35 -32c21.333 -26 35.333 -60.333 42 -103c3.33301 -26.667 5 -53.667 5 -81v-12c0 -52 -6.5 -97.5 -19.5 -136.5s-33.167 -68.667 -60.5 -89s-60.333 -30.5 -99 -30.5c-23.333 0 -41.333 2.66699 -54 8c-16.667 4 -30.667 11.667 -42 23
c-22 18 -37 48.667 -45 92zM231.998 442.998c-6 2.66699 -11.834 4.66699 -17.501 6s-12.5 2 -20.5 2c-14 0 -27.333 -2.66699 -40 -8c-22 -10 -40.333 -31.667 -55 -65c-2 -8.66699 -3.66699 -16.5 -5 -23.5s-2 -14.833 -2 -23.5c0 -32 9.33301 -57.667 28 -77
c8 -9.33301 19.333 -17 34 -23c9.33301 -3.33301 16.333 -5.5 21 -6.5s10.334 -1.5 17.001 -1.5c46.667 0 77 22.333 91 67c2 8 3.66699 15.5 5 22.5s2 14.833 2 23.5c0 53.333 -19.333 89 -58 107z" />
    <glyph glyph-name="colon" unicode=":" horiz-adv-x="637" 
d="M299 475l-0.000976562 -124.998h121l28 11l28 4c54 0 93.333 -33.333 118 -100c6.66699 -22 10 -41 10 -57c0 -58.667 -12.667 -110.334 -38 -155.001l-8 -14l-11 -15l-43 27l17 24l12 21c14 23.333 23.333 51 28 83l2 27c0 28 -8 52.833 -24 74.5s-37.333 32.5 -64 32.5
c-12.667 0 -21.667 -1.66699 -27 -5c-13.333 -2 -24 -12.333 -32 -31l-4 -24c0 -23.333 7.33301 -42 22 -56l9 -8l14 -8l-27 -40c-17.333 8 -32 22.333 -44 43c-5.33301 10 -9.66602 21 -12.999 33l-4 35l3 28l9 26l-92 1l-2 -8l-2 -5c-6 -15.333 -23.667 -29 -53 -41
l-11 -2l-15 -1h-15l-5 -1h-4l6 -12l19 -28l24 -36l23 -30l27 -34l76 -85l-43 -28l-26 27l-35 42l-46 57l-43 61l-49 72l-35 59l-10 19l-9 20l43 22l37 -64c9.33301 -11.333 26 -19 50 -23c16 0 29 5 39 15c5.33301 5.33301 9.33301 11.666 12 18.999l4 27v126h-246v41h635
v-41h-336z" />
    <glyph glyph-name="semicolon" unicode=";" horiz-adv-x="504" 
d="M434 475v-475.001h-53v154c-35.333 -30 -76 -45 -122 -45c-52.667 0 -96.667 16.333 -132 49c-39.333 36 -59 81.333 -59 136l8 -3l9 -3c4.66699 0 7.66699 -0.666992 9 -2h10c23.333 0 44 7 62 21c16.667 14.667 25 36.334 25 65.001c0 18 -8.33301 41.333 -25 70
l-25 32l-141 1v41h506v-41h-72zM381 474.999h-176l12 -20l8 -15l16 -39l5 -31c0 -44 -19.333 -78 -58 -102l-25 -10l-34 -9l3 -10l4 -8l3 -8l3 -6c24 -48 60.667 -72 110 -72c28 0 53 7.66699 75 23c11.333 7.33301 22 16.333 32 27l22 31v249z" />
    <glyph glyph-name="less" unicode="&#x3c;" 
d="M385 475l0.00195312 -151.001h-180c-9.33301 0 -16 -0.5 -20 -1.5s-9.66699 -3.16699 -17 -6.5c-20.667 -10 -35.334 -25.333 -44.001 -46c-4.66699 -12 -7 -24.333 -7 -37c0 -64 28 -112.667 84 -146l35 -16l49 -13l-7 7l-5 6l-20 36c-4.66699 17.333 -7 31.333 -7 42
c0 30 9.16699 53 27.5 69s41.5 24 69.5 24c24 0 45.667 -6.5 65 -19.5s31.666 -31.167 36.999 -54.5l2 -23c0 -37.333 -15.333 -68 -46 -92c-14 -10 -30.667 -18.667 -50 -26l-31 -5c-8.66699 -1.33301 -17 -2 -25 -2c-58 0 -109.667 19.667 -155 59
c-26 22 -45.167 44.833 -57.5 68.5s-18.5 51.5 -18.5 83.5c0 36.667 12.333 67.334 37 92.001s56 37 94 37l137 1v114h-332v41h512v-41h-127zM324.002 199.999c-6.66699 -2 -12.667 -6.33301 -18 -13l-11 -19l-4 -23c0 -28.667 7.33301 -50.667 22 -66l9 -8l14 -8
c26 0 44.333 16.667 55 50l5 32l-3 23l-9 19c-8 11.333 -19.667 17 -35 17c-10.667 0 -19 -1.33301 -25 -4z" />
    <glyph glyph-name="equal" unicode="=" horiz-adv-x="524" 
d="M463 475l0.000976562 -475l-52 1v186l-239 -142l-31 45l248 129l-57 55c-39.333 38 -67 57 -83 57c-24.667 0 -56.667 -10.333 -96 -31l-67 -35l-31 40l31 17l87 36l50 18c11.333 4 21.666 6 30.999 6c19.333 0 48 -19 86 -57l28 -29l43 -46v225h-413v41h537v-41h-72z
" />
    <glyph glyph-name="greater" unicode="&#x3e;" horiz-adv-x="588" 
d="M518 475l-0.000976562 -475.001h-53v207h-107l-1 -29c0 -34 -13 -62.333 -39 -85c-16.667 -14.667 -32.5 -25.5 -47.5 -32.5s-29.5 -10.5 -43.5 -10.5l46 -29l53 -23l-31 -39l-78 48l-18 13l-16 13l-9 9l-24 1h-34c-19.333 0 -34.666 7.66699 -45.999 23
c-2.66699 5.33301 -5 14.333 -7 27l3 15l9 15l13 9l16 4l15 -1c4 0 9 -2 15 -6l14 -8l15 -11l10 -11l13 -16l34 7c12.667 2 21 4.66699 25 8c40 18 60 47 60 87c0 8.66699 -0.666992 13.667 -2 15l-6 10l-9 6l-12 2l-17 -2l-46 -12l-14 -2l-22 3
c-6.66699 2 -14 5.16699 -22 9.5s-15.667 9.83301 -23 16.5l-22 23c-29.333 30.667 -44 60.334 -44 89.001c0 15.333 7 28 21 38l14 5l18 2l149 1v86h-268v41h600v-41h-82zM464.999 474.999h-145v-127h-191l-7 -5l-2 -5l1 -10l5 -11l10 -17l18 -22l12 -13l13 -8l13 -4l17 -1
l16 1c10.667 0 19.667 1.33301 27 4l26 4l17 2c8.66699 0 16 -1.33301 22 -4l25 -13l4 -4l7 -5l112 1v237z" />
    <glyph glyph-name="question" unicode="?" horiz-adv-x="324" 
d="M384 144l-24.998 -12.999c-41.333 -21.333 -80.333 -32 -117 -32c-6.66699 0 -13.834 0.166992 -21.501 0.5s-17.5 2.83301 -29.5 7.5c-36.667 12 -63 32 -79 60c-6.66699 15.333 -10 30.333 -10 45c0 27.333 9.33301 50.333 28 69l11 11l17 14l-24 10l-16 10
c-26.667 16.667 -40 41 -40 73l2 20l7 23l10 20l10 12l-107 1v41h326v-41h-156l-12 -11l-8 -8l-16 -26l-5 -27c0 -18.667 8.66699 -35.334 26 -50.001l22 -14l24 -4l86 1l18 -37h-55c-10 0 -20.667 -2.33301 -32 -7c-42.667 -13.333 -64 -40 -64 -80
c0 -22 9.33301 -39.333 28 -52l31 -16l37 -4c13.333 0 25.666 1.33301 36.999 4s25 8 41 16l32 16l40 25c8 6 13.333 11.667 16 17v-54z" />
    <glyph glyph-name="at" unicode="@" horiz-adv-x="781" 
d="M153 -145l-27 34l500 720l35 -25z" />
    <glyph glyph-name="A" unicode="A" horiz-adv-x="396" 
d="M291 -53v584h53v-584h-53z" />
    <glyph glyph-name="B" unicode="B" 
d="M387 475v-148.999h-188c-14 0 -25 -2.66699 -33 -8c-16.667 -8 -30.667 -25 -42 -51c-3.33301 -12 -5 -24 -5 -36c0 -64.667 32.667 -113.667 98 -147c18.667 -7.33301 36.667 -11 54 -11c33.333 0 62.5 10.167 87.5 30.5s37.5 46.166 37.5 77.499
c0 20.667 -7 41.667 -21 63l-9 10l-12 13l35 34c4 0 10 -4 18 -12l22 -32c6 -12 11.667 -30.333 17 -55l1 -21c0 -42 -16.333 -77 -49 -105s-75 -42 -127 -42c-53.333 0 -100.833 19.333 -142.5 58s-62.5 85.667 -62.5 141c0 42 13.5 75 40.5 99s60.5 36 100.5 36l129 1v106
h-336v41h494v-41h-107z" />
    <glyph glyph-name="C" unicode="C" horiz-adv-x="230" 
d="M0 475v41h250v-41h-250zM297 130l-26.001 -13c-8 -4 -17.333 -7 -28 -9l-29 -2c-20 0 -38.167 2.83301 -54.5 8.5s-32.666 15.667 -48.999 30s-28.5 29.833 -36.5 46.5c-6.66699 18 -10 37.333 -10 58c0 38 14 71 42 99c13.333 13.333 28.666 24 45.999 32
c9.33301 4 18.333 6.66699 27 8s17.334 2 26.001 2l23 -2l25 -4l5 -2l8 -2l7 -44c-2.66699 4 -9 7.33301 -19 10l-26 4c-11.333 0 -19 -0.666992 -23 -2l-22 -6l-20 -9l-15 -12l166 -114l6 14v-69c-6 -8 -13.667 -15.333 -23 -22zM126.999 297l-3.99902 -10.001l-2 -7
l-5 -18l-1 -13c0 -16 2.16699 -29.833 6.5 -41.5s11.833 -22.167 22.5 -31.5c9.33301 -10 20.333 -18 33 -24c15.333 -4.66699 28 -7 38 -7h16l11 4c5.33301 1.33301 9.66602 2.83301 12.999 4.5s8 4.83398 14 9.50098l10 7l12 11z" />
    <glyph glyph-name="D" unicode="D" horiz-adv-x="420" 
d="M489 335l-9 1l-17 -2l-26 -6c-33.333 -8 -58 -34.333 -74 -79c-4 -12 -6 -23.667 -6 -35v-214h-52v148c-24.667 -24.667 -55.667 -37 -93 -37c-40 0 -74 13 -102 39s-42 59 -42 99c0 35.333 14 67 42 95c19.333 18 43 30.667 71 38l27 3l27 -3l25 -8v-42l-23 8l-22 3
c-24 0 -44 -8 -60 -24s-26.667 -38.667 -32 -68c0 -28 8.33301 -51.667 25 -71c7.33301 -9.33301 17 -17 29 -23c6 -2.66699 11.333 -4.66699 16 -6s10.667 -2 18 -2c24 0 48.333 12.333 73 37c14 14 21 27.333 21 40v249h-305v41h422v-41h-65v-151l24 20l22 16l14 7l14 6
l13 3l14 1c12 0 22.667 -2.33301 32 -7l5 -36z" />
    <glyph glyph-name="E" unicode="E" horiz-adv-x="275" 
d="M178 254l-0.000976562 -76l-1 -7v-4l-5 -7l-16 -2c-6.66699 0 -14.667 3.66699 -24 11l-34 36l-29 39l-10 27l3 11c2.66699 3.33301 6.33398 6.33301 11.001 9l5 2l10 3l39 1v178h-127v41h283v-41h-105v-178h176v-43h-176z" />
    <glyph glyph-name="F" unicode="F" horiz-adv-x="336" 
d="M394 163l-23.002 -16.999l-33 -19l-32 -13l-33 -9l-33 -2c-17.333 0 -33.166 1.5 -47.499 4.5s-29.5 8.83301 -45.5 17.5c-28 14 -54.333 35.333 -79 64c-3.33301 4 -6.66602 8.33301 -9.99902 13c-5.33301 7.33301 -10 14.666 -14 21.999l-26 52l38 -14l44 -4
c37.333 0 70 9.66699 98 29s42 48.333 42 87c0 24 -8.83301 46.5 -26.5 67.5s-40.167 31.5 -67.5 31.5c-18.667 0 -33.667 -4.66699 -45 -14c-6.66699 -5.33301 -11.667 -12 -15 -20l-4 -22c0 -19.333 10.667 -34 32 -44l13 -4l19 -3v-42h-13c-40 0 -69.333 13.667 -88 41
c-9.33301 13.333 -14 31.333 -14 54c0 42 24.667 71.333 74 88c8 2 15 3.66699 21 5s12.667 2 20 2c20.667 0 39.334 -3.66699 56.001 -11c35.333 -12 61.666 -37 78.999 -75c6.66699 -18.667 10 -36.667 10 -54c0 -71.333 -36 -118 -108 -140
c-24.667 -6.66699 -50.667 -10 -78 -10l-11 1c4 -10 11 -20 21 -30l35 -26c29.333 -16.667 58 -25 86 -25c54 0 100 20.333 138 61l23 25l25 37v-78z" />
    <glyph glyph-name="G" unicode="G" horiz-adv-x="588" 
d="M457 475l0.000976562 -103.999l16 -9l13 -7c18 -10 34 -29 48 -57c11.333 -24.667 17 -51.334 17 -80.001c0 -21.333 -3 -42.666 -9 -63.999c-10 -34 -31.333 -61.333 -64 -82c-16 -8 -34.667 -12 -56 -12c-28 0 -52 7.33301 -72 22s-35.667 35.667 -47 63
c-8 -28 -22.333 -50.167 -43 -66.5s-45.334 -24.5 -74.001 -24.5c-60 0 -100 32 -120 96c-5.33301 18 -8 37.667 -8 59c0 8 0.166992 16.833 0.5 26.5s2.83301 20.5 7.5 32.5c14.667 43.333 37 73 67 89c16.667 7.33301 35.334 11 56.001 11c29.333 0 52.666 -7 69.999 -21
c18 -10 33.333 -29.667 46 -59l19 30l11 16l9 8c15.333 13.333 35.333 22.666 60 27.999v105h-404v41h586v-41h-129zM490.001 259.001c-2 14.667 -5.66602 26 -10.999 34c-12 24 -32.333 36 -61 36c-30 0 -56 -23.333 -78 -70l-8 -20l-2 -23v-14l6 -24
c13.333 -52.667 42.666 -79 87.999 -79c26 0 45 12.667 57 38c4 10 7 21.333 9 34l4 45v28zM274.002 248.001c-8 27.333 -22 48.999 -42 64.999c-13.333 9.33301 -28 14 -44 14c-32 0 -56 -23 -72 -69c-2.66699 -13.333 -4.16699 -23 -4.5 -29s-0.5 -11 -0.5 -15v-31l4 -18
c6 -29.333 19 -49.666 39 -60.999c10 -6 21.333 -9 34 -9c31.333 0 57 20 77 60l9 25l9 36z" />
    <glyph glyph-name="H" unicode="H" horiz-adv-x="275" 
d="M246 475v41h39v-41h-39zM201 250l0.000976562 -90.998l-1 -6l-8 -7l-10 -2c-6 0 -14.667 4.33301 -26 13c-16 11.333 -30.667 24.666 -44 39.999l-38 45c-6.66699 10 -11 19 -13 27l3 8l8 8l9 5l7 2l60 1v140c0 12 -4.33301 22.333 -13 31s-19.334 13 -32.001 13
c-6 0 -12.667 -1.33301 -20 -4l-17 -9l-11 -16l-4 -21l1 -14l5 -15l2 -7l5 -9l-50 1l-4 7l-1 6l-4 14l-1 13c0 29.333 9.83301 52.166 29.5 68.499s43.5 24.5 71.5 24.5c44 0 73.667 -17 89 -51c4.66699 -14 7 -26.333 7 -37v-135h164v-43h-164z" />
    <glyph glyph-name="I" unicode="I" horiz-adv-x="215" 
d="M292 205l-25 -14.001l-14 -5l-12 -3l-14 -3h-13c-36 0 -67.667 12.667 -95 38s-41 58.333 -41 99v158h-78v41h221v-41h-92v-166c0 -28.667 9.66699 -51.667 29 -69c8 -7.33301 17.333 -13.666 28 -18.999l29 -5c37.333 0 68 21 92 63l7 23v-77z" />
    <glyph glyph-name="J" unicode="J" horiz-adv-x="576" 
d="M506 475v-475.001h-55v248l-256 -197l-31 43l186 133l-71 37l-21 8l-33 17l-14 9l-72 -50l-80 -53l-34 39l79 47c6.66699 2 13 5.66699 19 11l22 14l10 7l13 10l-21 12l-13 11c-8 7.33301 -16.667 18.666 -26 33.999c-5.33301 12.667 -8 26.334 -8 41.001
c0 28 10.167 50.5 30.5 67.5s44.5 25.5 72.5 25.5c24.667 0 48.167 -8.16699 70.5 -24.5s33.5 -39.166 33.5 -68.499c0 -9.33301 -0.5 -16 -1.5 -20s-3.5 -10 -7.5 -18s-11 -17.667 -21 -29l-13 -11l-17 -14l41 -24l68 -37l32 -13l63 46v174h-107v41h234v-41h-72z
M250 439.999c-2 6 -6.33301 12.333 -13 19l-19 12l-21 4c-12.667 0 -24.667 -4.66699 -36 -14l-11 -17l-4 -23c0 -18.667 9.33301 -36 28 -52l18 -12l13 -4l14 7c4 2 7.33301 4.66699 10 8c16.667 12.667 25 29 25 49c0 9.33301 -1.33301 17 -4 23z" />
    <glyph glyph-name="K" unicode="K" horiz-adv-x="588" 
d="M518 475l0.00488281 -474.999h-53v350h-319c-8.66699 0 -13.334 -4.33301 -14.001 -13l2 -13l7 -14l10 -17l7 -9l15 -18l13 -12l17 -10l20 -3l20 2l27 9l26 8l22 3c17.333 0 32.666 -8 45.999 -24c8 -12.667 13.667 -31.334 17 -56.001
c0 -7.33301 -0.5 -14.666 -1.5 -21.999s-4.5 -17.333 -10.5 -30s-16 -25 -30 -37c-4.66699 -4 -12 -9.33301 -22 -16c-14.667 -10 -24.334 -16.333 -29.001 -19c-16.667 -7.33301 -32 -11 -46 -11l100 -75l-41 -32l-102 98h-45c-30 0 -53 10.333 -69 31
c-2.66699 5.33301 -5 13.666 -7 24.999l3 14l9 13l13 9l16 3c7.33301 0 14.666 -2.33301 21.999 -7l28 -18l19 -18l7 -10l40 9l28 9c46 20 69 48 69 84l-3 13c-0.666992 4 -3 7.33301 -7 10l-10 6l-13 2l-17 -2l-48 -12l-15 -2c-31.333 0 -63 17.333 -95 52
c-14.667 16.667 -26.334 33 -35.001 49c-7.33301 16 -11 32 -11 48c0 11.333 5 22 15 32l17 8l21 3l334 1v84h-465v41h590v-41h-72z" />
    <glyph glyph-name="L" unicode="L" horiz-adv-x="371" 
d="M324 260l-35 41h176v-41h-141zM277 475v-167l-2 -10l-6 -22c-4 -14 -15 -25 -33 -33l-21 -6c-6 0 -10 -0.666992 -12 -2l-10 -1l-11 1c-4 0 -8.66699 1.33301 -14 4l62 -94l27 -35l48 -55l21 -21l-41 -34c-12 4 -28 21 -48 51l-122 177l-28 46l-18 31l-18 32l43 28
l29 -56c12 -23.333 31.667 -35 59 -35l22 3c6 2 10.333 5.33301 13 10l7 15l2 21l-1 15v137h-235v41h395v-41h-108z" />
    <glyph glyph-name="M" unicode="M" horiz-adv-x="527" 
d="M451 475v-131h-213l-6 -8l-1 -7l1 -11c1.33301 -6 3 -10 5 -12l8 -16l15 -21l15 -18l15 -12l15 -9l15 -2h6l4 1l69 20l25 6l17 2c14.667 0 28 -9 40 -27l8 -25l3 -28c0 -14 -0.666992 -25.833 -2 -35.5s-4.33301 -20.5 -9 -32.5c-14 -40 -41.333 -67.333 -82 -82
c-20 -6.66699 -40.333 -10 -61 -10c-48 0 -96.667 19.333 -146 58c-41.333 31.333 -76.666 67.333 -105.999 108l-31 42l-10 20l39 38c1.33301 -6 4.66602 -13.333 9.99902 -22c2 -5.33301 11 -18.666 27 -39.999c9.33301 -14 17 -25 23 -33l24 -27l49 -47
c14 -12.667 35.333 -26.334 64 -41.001c20 -10 39 -15 57 -15c29.333 0 54 10.333 74 31c10 10.667 17.333 22.667 22 36s7 30 7 50c0 22 -8.66699 33 -26 33c-6 0 -13.667 -1.66699 -23 -5c-12.667 -2 -25.667 -6.33301 -39 -13l-21 -7l-14 -2c-32 0 -64 20.5 -96 61.5
s-48 74.5 -48 100.5l3 19c2 6 5.66699 10.333 11 13l17 7l22 2l173 1v90h-400v41h535v-41h-84z" />
    <glyph glyph-name="N" unicode="N" horiz-adv-x="588" 
d="M463 475v-86.001l20 -11l21 -9c26 -20 39 -48.333 39 -85c0 -19.333 -1.66699 -36.666 -5 -51.999s-9.33301 -31.666 -18 -48.999c-30 -60.667 -83.333 -105.334 -160 -134.001c-34.667 -12.667 -68.667 -19 -102 -19c-46 0 -83 12.833 -111 38.5s-42 60.5 -42 104.5
c0 44.667 17.667 81.667 53 111l-15 6l-12 6l-11 5l-8 6c-30.667 23.333 -46 50.333 -46 81c0 14 0.666992 23 2 27l9 25l13 19c4 6 9 11 15 15l-105 1v41h590v-41h-127zM491 306.999c-3.33301 28 -20.666 41.999 -51.999 41.999c-15.333 0 -29 -7 -41 -21l-10 -22l-3 -26
c0 -10.667 0.333008 -18.667 1 -24s3 -14 7 -26s10.667 -25 20 -39l11 -16l17 -18l6 5l12 15c7.33301 9.33301 16.666 28.333 27.999 57c2 7.33301 3.66699 14.833 5 22.5s2 16.834 2 27.501zM412 474.998l-242.001 0.000976562c-11.333 0 -23.666 -13 -36.999 -39l-12 -24
l-4 -20c0 -20 11 -39.667 33 -59c14 -9.33301 28.333 -15.333 43 -18l18 -2h11l13 1h6l7 1h6l6 2l19 -38l-3 -1l-4 1h-11c-28 0 -52.833 -10 -74.5 -30s-32.5 -44 -32.5 -72c0 -28.667 10.667 -54.667 32 -78c24.667 -21.333 50.667 -32 78 -32c36 0 69 10 99 30l19 13
l24 18l-25 30l-22 40l-16 44l-5 42c0 33.333 12 60.666 36 81.999l18 10l20 10v89z" />
    <glyph glyph-name="O" unicode="O" horiz-adv-x="229" 
d="M0 475v41h232v-41h-232zM299 139l-22 -15l-31 -11l-31 -3c-39.333 0 -74 13 -104 39c-16 14 -28 29 -36 45c-3.33301 7.33301 -6 15.5 -8 24.5s-3 19.167 -3 30.5c0 38.667 13.167 72.5 39.5 101.5s58.166 43.5 95.499 43.5l18 -1l20 -3l17 -4
c6.66699 0 11.334 -0.666992 14.001 -2l11 -52l-11 6l-9 4l-27 8l-27 3c-14.667 0 -27 -2.33301 -37 -7c-16.667 -6 -31 -23.333 -43 -52c-3.33301 -12 -5 -24 -5 -36c0 -47.333 17.667 -80 53 -98c16.667 -4.66699 30 -7 40 -7h11l19 4c11.333 2 21.333 6.66699 30 14
c22 10 38.333 24.333 49 43v-58z" />
    <glyph glyph-name="P" unicode="P" horiz-adv-x="324" 
d="M0 475v41h330v-41h-330zM404 180l-35 -28.999c-26 -21.333 -54.667 -35.333 -86 -42l-29 -3c-33.333 0 -61 9.66699 -83 29c-10 8.66699 -18.167 20.167 -24.5 34.5s-9.5 29.833 -9.5 46.5c0 35.333 16.667 69.666 50 102.999c7.33301 7.33301 16 14 26 20l-164 1v41h305
v-41h-67l-29 -20l-20 -16c-32.667 -26.667 -49 -55.334 -49 -86.001c0 -33.333 13 -55.666 39 -66.999l28 -4c42 0 81 23.333 117 70l35 46c8 10 12 19 12 27v-89c-2 -5.33301 -7.33301 -12.333 -16 -21z" />
    <glyph glyph-name="Q" unicode="Q" horiz-adv-x="625" 
d="M352 475l-0.000976562 -149.002l10 9l21 15c20.667 14.667 40.667 22 60 22c25.333 0 49.5 -6.66699 72.5 -20s39.833 -32 50.5 -56c6.66699 -18 10 -34.333 10 -49c0 -40.667 -16.333 -83.667 -49 -129l-18 -20l-34 -35l-43 35l26 19l19 18
c30.667 34.667 46 73.334 46 116.001c0 20.667 -6 39 -18 55c-14.667 16.667 -34.667 25 -60 25c-12 0 -23 -3.66699 -33 -11c-14 -8.66699 -25.333 -20 -34 -34l-12 -19l-14 -26v-241h-53v199c-6 -8 -13.333 -14 -22 -18l-23 -11l-25 -7l-25 -2
c-12 0 -20.833 0.5 -26.5 1.5s-14.167 3.5 -25.5 7.5c-33.333 14 -56.666 37 -69.999 69c-2.66699 6.66699 -5 14.834 -7 24.501s-3 19.167 -3 28.5v183h-72v41h631v-41h-279zM298.999 474.998l-176 -0.000976562v-190c0 -30 7.66699 -52.667 23 -68
c3.33301 -3.33301 10.333 -7.66602 21 -12.999l32 -4c28 0 51.667 9.33301 71 28c15.333 15.333 25 32 29 50v197z" />
    <glyph glyph-name="R" unicode="R" horiz-adv-x="275" 
d="M0 475v41h277v-41h-277zM168 322c-12.667 0 -22.334 -1.66699 -29.001 -5c-21.333 -4 -32 -20.667 -32 -50c0 -23.333 6.33301 -49.5 19 -78.5s29.334 -55.833 50.001 -80.5l47 -53c10 -9.33301 18.333 -15 25 -17l-35 -32l-46 41l-32 35l-33 45c-30 46 -45 90 -45 132
c0 26 7 49.333 21 70s35 31 63 31l226 1v-39h-199z" />
    <glyph glyph-name="S" unicode="S" horiz-adv-x="6" 
d="M-95 516l-172 226l47 26l160 -252h-35zM-181 516l-197 132l37 41l185 -173h-25z" />
    <glyph glyph-name="T" unicode="T" horiz-adv-x="408" 
d="M0 475v41h408v-41h-408zM355 318l13 -16.002l18 -33l10 -28l4 -21c0 -33.333 -9 -61.666 -27 -84.999c-22.667 -26.667 -52.667 -40 -90 -40c-44 0 -85.667 22 -125 66c-5.33301 6 -12 14.333 -20 25l-21 30c-10.667 18.667 -22 41.667 -34 69l-20 49l-4 19l43 34
c-2 -2 -3 -5 -3 -9c0 -6.66699 3 -16.667 9 -30l40 -88c38 -84 84.333 -126 139 -126c28 0 47 16 57 48l6 34c0 17.333 -7.33301 39.333 -22 66c-11.333 22.667 -25.333 42.334 -42 59.001l-15 15l227 1v-39h-143z" />
    <glyph glyph-name="U" unicode="U" horiz-adv-x="264" 
d="M0 475v41h268v-41h-268zM184 301v-88l-1 -5v-5c0 -4 -2 -7 -6 -9l-15 -2l-6 3c-6.66699 3.33301 -12 6.33301 -16 9l-37 37l-19 22c-6 8 -14.333 23 -25 45c0 11.333 5.33301 21 16 29l9 3l12 1l261 1v-41h-173z" />
    <glyph glyph-name="V" unicode="V" 
d="M395 475l0.000976562 -155.002h-178c-9.33301 0 -16 -0.5 -20 -1.5s-9.66699 -3.16699 -17 -6.5c-19.333 -8.66699 -35 -25 -47 -49c-4 -8 -6 -19.333 -6 -34c0 -39.333 16 -76.166 48 -110.499s70.667 -51.5 116 -51.5c42.667 0 78.667 14.667 108 44l27 34l43 -24
c-13.333 -22 -30.333 -40.667 -51 -56c-36 -26 -75.667 -39 -119 -39c-60.667 0 -113.334 20.833 -158.001 62.5s-67 89.834 -67 144.501c0 37.333 13.167 68.5 39.5 93.5s56.833 37.5 91.5 37.5l139 1v110h-338v41h492v-41h-103z" />
    <glyph glyph-name="W" unicode="W" horiz-adv-x="12" 
d="M-64 618c-13.333 -13.333 -29.333 -23.666 -48 -30.999c-21.333 -6.66699 -43 -10 -65 -10c-46.667 0 -83 12.667 -109 38s-43 59.666 -51 102.999l52 1c0 -30.667 10.333 -56 31 -76c20.667 -18.667 46.667 -28 78 -28c46 0 79 19.333 99 58
c5.33301 14.667 8 29.667 8 45l51 1c0 -37.333 -15.333 -71 -46 -101z" />
    <glyph glyph-name="X" unicode="X" horiz-adv-x="287" 
d="M213 475v-265.999c-2 -12 -9.33301 -19 -22 -21c-8.66699 0 -19 3.66699 -31 11l-40 34c-25.333 27.333 -40 51.666 -44 72.999c0 4.66699 0.666992 7.66699 2 9l7 6l4 1l6 2h4l5 1l58 1v149h-162v41h287v-41h-74z" />
    <glyph glyph-name="Y" unicode="Y" horiz-adv-x="385" 
d="M0 475v41h387v-41h-387zM449 296l-31 -15.001l-13 -9l-14 -13l-17 -20l-15 -24l-15 -29l-8 -23l-43 25l2 12l8 15l17 29l6 15c-4 12.667 -18.667 24.334 -44 35.001l-34 14l-31 5c-9.33301 0 -15.833 -0.333008 -19.5 -1s-9.66699 -2.83398 -18 -6.50098
s-18.166 -10.834 -29.499 -21.501c-18 -23.333 -27 -46.666 -27 -69.999c0 -50 28.667 -93.333 86 -130l35 -22l51 -24l-25 -42c-34 0 -79 29 -135 87c-40.667 42.667 -61 87.667 -61 135c0 40.667 13.667 73.834 41 99.501s62.666 38.5 105.999 38.5
c6 0 13 -0.166992 21 -0.5s18 -2.83301 30 -7.5c16.667 -4 31.667 -11.333 45 -22l27 -21c6 -4 9.33301 -8.33301 10 -13l9 7l8 6l19 13l14 9l23 10l25 8l10 2l13 2v-46z" />
    <glyph glyph-name="Z" unicode="Z" horiz-adv-x="5" 
d="M-30 711l-7 3.00098l-19 4l-21 2c-19.333 0 -35 -6.83301 -47 -20.5s-18 -30.5 -18 -50.5c0 -14.667 2.83301 -30.334 8.5 -47.001s13.5 -31.667 23.5 -45l14 -19l19 -23l-38 1c-5.33301 4 -10 8.66699 -14 14l-23 36l-13 27l-13 28c-6 18 -9 34.667 -9 50
c0 28 10.833 50 32.5 66s47.167 24 76.5 24l29 -3l27 -9l-1 -40z" />
    <glyph glyph-name="bracketleft" unicode="[" horiz-adv-x="469" 
d="M541 210l-12.999 -7.99902l-38 -16l-18 -4l-17 -1c-47.333 0 -83 21.333 -107 64c-5.33301 14.667 -8 29.667 -8 45c0 26 9.16699 49.167 27.5 69.5s41.166 33.5 68.499 39.5l23 2l22 -3l23 -8l12 -36l-23 6l-25 3c-13.333 0 -23.333 -1.66699 -30 -5
c-17.333 -2 -31.333 -13.333 -42 -34c-3.33301 -8.66699 -5 -19.334 -5 -32.001c0 -32 13.333 -53 40 -63l26 -4c12 0 21.667 1.33301 29 4c18 2 36 12 54 30c5.33301 5.33301 11 13 17 23v-59zM512.001 76.001l-53 -22.9971l-56 -16l-53 -5c-30 0 -54 2.66699 -72 8
c-48.667 13.333 -90.667 42 -126 86c-24.667 31.333 -44 62.666 -58 93.999l-17 40l-28 81l45 24l17 -56l6 -6l6 -4l16 -7l19 -2l20 3c12 4 20 11.667 24 23l3 19v140h-205v41h477v-41h-221v-143c0 -30 -13.667 -52 -41 -66l-36 -10l-46 -3l24 -53l24 -37
c18 -28.667 42.833 -50.834 74.5 -66.501s64.5 -23.5 98.5 -23.5c18.667 0 35.834 1.66699 51.501 5s33.167 9.33301 52.5 18l34 15l25 15c17.333 11.333 30.666 21.666 39.999 30.999v-52z" />
    <glyph glyph-name="backslash" unicode="\" horiz-adv-x="408" 
d="M319 394c-48.667 -48.667 -90.667 -73 -126 -73v-145h-52v168c18 0 49 14 93 42c60 38 90 80.333 90 127c0 30.667 -12.167 58.5 -36.5 83.5s-51.833 37.5 -82.5 37.5c-30 0 -63 -10.667 -99 -32c-12.667 -7.33301 -22.5 -13.666 -29.5 -18.999
s-11.5 -10.666 -13.5 -15.999l-38 44l29 18l24 14c39.333 22.667 80.333 34 123 34c32 0 63.333 -8.83301 94 -26.5s53 -41.167 67 -70.5c2 -4.66699 4.66699 -12.834 8 -24.501s5 -23.834 5 -36.501c0 -46 -18.667 -87.667 -56 -125zM139 0v55h58v-55h-58z" />
    <glyph glyph-name="bracketright" unicode="]" horiz-adv-x="180" 
d="M80 -84h-43l41 141h61z" />
    <glyph glyph-name="asciicircum" unicode="^" horiz-adv-x="191" 
d="M129 461h-61l59 143h43z" />
    <glyph glyph-name="underscore" unicode="_" horiz-adv-x="816" 
d="M430 475l0.00195312 -209l121 56l-6 10l-1 14c0 7.33301 1.66699 16.5 5 27.5s12.666 20.833 27.999 29.5l23 6c34.667 0 52 -20.667 52 -62c0 -11.333 -7.33301 -23 -22 -35l-10 -6l-13 -8l77 -97l-32 -9l-21 -8c-35.333 -16 -53 -38.667 -53 -68c0 -12 2 -23 6 -33
c3.33301 -6 9.33301 -13.333 18 -22l23 -11l29 -4c10 0 17.167 0.5 21.5 1.5s10.166 3.16699 17.499 6.5c17.333 7.33301 30.333 15.333 39 24l13 13l17 19l37 -42l-22 -19l-18 -12l-26 -13l-24 -9l-26 -6l-25 -2c-10.667 0 -19.667 0.5 -27 1.5
s-16.666 3.16699 -27.999 6.5c-53.333 16 -80 50.333 -80 103c0 29.333 9.33301 53 28 71c22.667 20.667 46.667 31 72 31l-55 67l-138 -66v-221h-53v199l-215 -160l-33 45l225 146l-52 56c-32 35.333 -57 54.333 -75 57c-18.667 0 -50.334 -11.333 -95.001 -34l-68 -35
l-31 40l23 12l62 28l72 28l42 10c7.33301 0 19 -5 35 -15c18 -13.333 35.667 -29.333 53 -48l43 -48c6 -6.66699 10.667 -14 14 -22v216h-377v41h826v-41h-396z" />
    <glyph glyph-name="grave" unicode="`" horiz-adv-x="5" 
d="M-24 -209l-14.9971 -7.00098c-24.667 -11.333 -52.334 -17 -83.001 -17c-20.667 0 -36.334 2.66699 -47.001 8c-36.667 10 -62.334 29.333 -77.001 58c-7.33301 16 -11 32 -11 48c0 16.667 2.66699 31.334 8 44.001c6.66699 24 25 43.333 55 58c8 2 15 3.66699 21 5
s12.667 2 20 2h83v-41h-71c-26 0 -45 -12.333 -57 -37l-6 -27c0 -24.667 9 -43 27 -55c18 -14.667 39 -22 63 -22c18.667 0 34 3 46 9l23 12l11 11l26 -39z" />
    <glyph glyph-name="a" unicode="a" horiz-adv-x="2" 
d="M-95 628v65h69v-65h-69z" />
    <glyph glyph-name="b" unicode="b" horiz-adv-x="445" 
d="M338 475l0.000976562 -131h-209l-3 -4l-3 -5l1 -14l4 -11l9 -15l15 -19l29 -32l16 -13l14 -3c12.667 0 29 3 49 9l26 9l24 7l20 2c16 0 29.333 -7.33301 40 -22c2.66699 -4 6.33398 -12.333 11.001 -25l4 -27c0 -22.667 -3.66699 -43.667 -11 -63
c-9.33301 -26 -27 -49.333 -53 -70l-25 -18c-18.667 -8.66699 -34.667 -13 -48 -13l11 -12l10 -7l22 -19l18 -16l40 -26l28 -17l-27 -43l-15 10l-11 7c-3.33301 2 -7.83301 5 -13.5 9s-11.167 8.66699 -16.5 14l-51 44l-25 25l-19 17l-8 10h-35
c-9.33301 0 -20.333 1.66699 -33 5c-4.66699 0 -9.66699 1.66699 -15 5c-31.333 10 -47 31.333 -47 64l3 17c2 6 5.33301 11.333 10 16l14 10l19 4c21.333 0 45.666 -13 72.999 -39l13 -17l18 -22c13.333 0 25 1.66699 35 5c10.667 1.33301 19 4 25 8c40.667 18 61 50 61 96
l-1 19c0 8.66699 -0.833008 14.5 -2.5 17.5s-3.16699 5.16699 -4.5 6.5l-10 4l-16 -4l-33 -12l-38 -11l-28 -4c-26.667 0 -55.834 21.5 -87.501 64.5s-47.5 74.833 -47.5 95.5l3 15l11 14l16 10l17 4l174 1v90h-285v41h451v-41h-113z" />
    <glyph glyph-name="c" unicode="c" horiz-adv-x="445" 
d="M373 475l-0.000976562 -475h-53v152c-6 -8 -13.667 -15.333 -23 -22l-26 -13c-8 -4 -17.333 -7 -28 -9l-29 -2c-20 0 -38.167 2.83301 -54.5 8.5s-32.666 15.667 -48.999 30s-28.5 29.833 -36.5 46.5c-6.66699 18 -10 37.333 -10 58c0 38 14 71 42 99
c13.333 13.333 28.666 24 45.999 32c9.33301 4 18.333 6.66699 27 8s17.334 2 26.001 2l23 -2l25 -4l5 -2l8 -2l7 -44c-2.66699 4 -9 7.33301 -19 10l-26 4c-11.333 0 -19 -0.666992 -23 -2l-22 -6l-20 -9l-15 -12l166 -114l6 22v246h-320v41h443l2 -41h-72zM126.999 297
l-3.99902 -10.001l-2 -7l-5 -18l-1 -13c0 -16 2.16699 -29.833 6.5 -41.5s11.833 -22.167 22.5 -31.5c9.33301 -10 20.333 -18 33 -24c15.333 -4.66699 28 -7 38 -7h16l11 4c5.33301 1.33301 9.66602 2.83301 12.999 4.5s8 4.83398 14 9.50098l10 7l12 11z" />
    <glyph glyph-name="d" unicode="d" horiz-adv-x="637" 
d="M357 475l-0.00292969 -150.999l18 17l12 10c20.667 16.667 44 25 70 25c37.333 0 70 -12.667 98 -38c26 -23.333 39 -53.666 39 -90.999c0 -38 -17.333 -78.667 -52 -122l-22 -27l-30 -33l-43 33c4.66699 1.33301 10 5 16 11c28 28 49.667 59.333 65 94
c7.33301 18.667 11 34.667 11 48c0 18.667 -3.33301 35 -10 49c-12 23.333 -34 35 -66 35c-27.333 0 -52.666 -14.667 -75.999 -44c-7.33301 -10 -14.666 -23 -21.999 -39c-5.33301 -14.667 -8 -27.334 -8 -38.001v-214h-52v148c-24.667 -24.667 -55.667 -37 -93 -37
s-70.666 13.167 -99.999 39.5s-44 59.166 -44 98.499c0 40 13.667 72.333 41 97c20 18 43.333 30 70 36l27 3l27 -3c13.333 -2 22.333 -4.66699 27 -8v-42l-10 4l-5 3l-15 4l-15 2c-28 0 -50 -10 -66 -30s-24 -43.667 -24 -71c0 -42 16.333 -71.333 49 -88
c14 -4.66699 26.333 -7 37 -7c24 0 48.333 12.333 73 37c14 14 21 27.333 21 40v249h-305v41h645v-41h-288z" />
    <glyph glyph-name="e" unicode="e" horiz-adv-x="472" 
d="M413 475l-0.000976562 -475.001h-52v252h-183v-70l1 -11l-2 -6l-8 -6l-13 -2c-10 0 -23.333 8.66699 -40 26c-12 12 -29 32 -51 60c-6 8.66699 -9.33301 17.334 -10 26.001l3 13c2.66699 3.33301 6.33398 6.33301 11.001 9l5 2l10 3l43 1v178h-127v41h488v-41h-75z
M360.999 474.999h-183v-178h183v178z" />
    <glyph glyph-name="f" unicode="f" horiz-adv-x="216" 
d="M535 516l-24.999 22.001l-24 24c-12 12 -24 22.333 -36 31l-23 17l-60 40c-20.667 14 -44.334 25.5 -71.001 34.5s-49.667 13.5 -69 13.5c-16 0 -29.333 -2.66699 -40 -8c-24 -8 -43 -27.333 -57 -58c-4.66699 -16.667 -7 -32.334 -7 -47.001l1 -20l5 -23l6 -19l4 -8
l87 1v-41h-85v-475h-53v475h-88v41h91l-4 9l-6 25l-6 27l-1 16c0 18 1.5 33 4.5 45s9.16699 24.333 18.5 37c18 24.667 41.333 43 70 55c20.667 7.33301 41.667 11 63 11c50.667 0 107.667 -19.333 171 -58c26 -16 49.333 -32.333 70 -49l72 -60l29 -30l30 -29z" />
    <glyph glyph-name="g" unicode="g" horiz-adv-x="455" 
d="M375 475l0.00390625 -129h-238c-6 0 -10.333 -1.66699 -13 -5l-4 -9l4 -17c1.33301 -6.66699 5.66602 -13.667 12.999 -21l4 -8l6 -7l12 -16l10 -12l7 -4l15 3l16 3l30 4l23 2c10.667 0 20.5 -0.333008 29.5 -1s19.833 -2.33398 32.5 -5.00098
c37.333 -10 62.666 -27 75.999 -51c6.66699 -14.667 10 -29.667 10 -45c0 -13.333 -1.5 -24.5 -4.5 -33.5s-8.5 -17.5 -16.5 -25.5l-21 -16l-7 -5l-39 30l5 2l5 3l4 2l3 3c10 10 16 23.333 18 40c0 34.667 -19.333 54.334 -58 59.001l-41 4c-62 0 -101.333 -19.333 -118 -58
c-6 -12 -9 -25.333 -9 -40c0 -19.333 9 -38 27 -56c19.333 -17.333 47 -31 83 -41l85 -21l23 -1c3.33301 0 5.66602 0.166992 6.99902 0.5s2.33301 0.833008 3 1.5l-19 -38c-2.66699 -1.33301 -8.66699 -2.66602 -18 -3.99902c-20.667 0 -46.667 5.33301 -78 16l-38 13
c-86.667 29.333 -130 74.666 -130 135.999c0 16 5.33301 32.667 16 50c5.33301 8.66699 11.666 16.667 18.999 24l24 24l-21 22l-13 17c-12.667 16.667 -21.667 31 -27 43l-8 37l3 18l11 14l15 8l18 3l211 1v86h-322v41h475v-41h-100z" />
    <glyph glyph-name="h" unicode="h" horiz-adv-x="215" 
d="M140 475v-475h-52v475h-88v41h76l1 4c0 16 -26.667 54.667 -80 116c-32 37.333 -60 56 -84 56c-21.333 0 -38 -8.33301 -50 -25c-6 -9.33301 -11.667 -23.333 -17 -42l-1 -19c0 -8.66699 1.16699 -16.667 3.5 -24l6 -18.5c1.66699 -5 3.5 -9.5 5.5 -13.5l13 -25l7 -10
l-58 1l-12 16l-10 20l-7 22l-2 23c0 10 0.333008 17.333 1 22s3.33398 13.667 8.00098 27c19.333 56.667 56.333 85 111 85c23.333 0 48 -9 74 -27c31.333 -21.333 57.666 -48.333 78.999 -81l29 -45l36 -63l95 1v-41h-84z" />
    <glyph glyph-name="i" unicode="i" horiz-adv-x="445" 
d="M377 475l-0.000976562 -475h-53v199l-18 -15l-13 -9c-23.333 -16 -48.666 -24 -75.999 -24c-58 0 -101 28.333 -129 85c-6.66699 20 -10 38 -10 54v185h-78v41h459v-41h-82zM323.999 475h-195v-192c0 -38 18.667 -67.333 56 -88l30 -5c20 0 40.333 6.33301 61 19l19 15
l13 14l16 21v216z" />
    <glyph glyph-name="j" unicode="j" horiz-adv-x="372" 
d="M309 475l-0.000976562 -131c0 -43.333 -22.667 -74 -68 -92c-13.333 -4.66699 -26.666 -7 -39.999 -7l-19 1c-9.33301 1.33301 -15.333 3 -18 5l72 -103l28 -35l52 -57l22 -22l-37 -34c-10 3.33301 -28.667 21.333 -56 54c-32.667 38 -65 81 -97 129l-31 46l-29 48
l-21 36l-20 36l41 30l41 -70c10.667 -16.667 29.667 -25 57 -25c22 0 38.167 4.83301 48.5 14.5s17.5 26.5 21.5 50.5v126h-276v41h409v-41h-80z" />
    <glyph glyph-name="k" unicode="k" horiz-adv-x="215" 
d="M141 475v-475h-53v475h-98v41h248v-41h-97z" />
    <glyph glyph-name="l" unicode="l" horiz-adv-x="588" 
d="M518 475v-475h-53v260h-141l-35 41h176v174h-188v-167l-2 -10l-6 -22c-4 -14 -15 -25 -33 -33l-21 -6c-6 0 -10 -0.666992 -12 -2l-10 -1l-11 1c-4 0 -8.66699 1.33301 -14 4l62 -94l27 -35l48 -55l21 -21l-41 -34c-12 4 -28 21 -48 51l-122 177l-28 46l-18 31l-18 32
l43 28l29 -56c12 -23.333 31.667 -35 59 -35l22 3c6 2 10.333 5.33301 13 10l7 15l2 21l-1 15v137h-235v41h610v-41h-82z" />
    <glyph glyph-name="m" unicode="m" horiz-adv-x="541" 
d="M410 475l12 -17l8 -12c6 -8 11.333 -19.667 16 -35l5 -33c0 -38 -17.667 -68.667 -53 -92l20 -9c14 -7.33301 28.167 -22.5 42.5 -45.5s21.5 -49.833 21.5 -80.5c0 -18.667 -3.66699 -36.334 -11 -53.001c-23.333 -54 -68.333 -81 -135 -81
c-50.667 0 -100.667 27.667 -150 83c-37.333 42 -70 93.667 -98 155l-27 60l-6 26l45 28l15 -41l16 -40l24 -54l16 -30c44 -78 88.667 -125 134 -141c10 -3.33301 20.333 -5 31 -5c19.333 0 34.5 2.83301 45.5 8.5s20.833 13.834 29.5 24.501c11.333 17.333 17 39.333 17 66
c0 22.667 -4.5 43.167 -13.5 61.5s-23.5 32.5 -43.5 42.5c-12 6 -25 9 -39 9l-92 1l-19 43h109l29 3c8.66699 2 15 4.66699 19 8c16 11.333 24 30.333 24 57c0 18.667 -8.66699 39.667 -26 63l-11 12l-15 17l-360 1v41h561v-41h-141z" />
    <glyph glyph-name="n" unicode="n" 
d="M393 475v-134.999h-184c-16 0 -32.667 -8 -50 -24l-16 -25l-5 -27c0 -60.667 29 -102 87 -124l36 -8l52 -4l-2 6v5c0 7.33301 -0.666992 12.333 -2 15l-1 11c0 11.333 0.666992 18.666 2 21.999l9 20c8.66699 12.667 22.667 19 42 19c6.66699 0 12.667 -1.66699 18 -5
c11.333 -4 20.333 -14 27 -30l4 -20c0 -21.333 -6.33301 -38 -19 -50l-8 -7l-12 -8l25 -55l17 -29l17 -23l7 -8l8 -11h-66l-27 53l-28 59l-8 -2h-7c-52.667 0 -95.5 7.83301 -128.5 23.5s-56.667 35.5 -71 59.5s-21.5 54 -21.5 90c0 30.667 9.66699 58.167 29 82.5
s43 36.5 71 36.5l148 1v92h-336v41h502v-41h-109z" />
    <glyph glyph-name="o" unicode="o" horiz-adv-x="445" 
d="M375 475v-475h-53v156l-23 -17l-22 -15l-31 -11l-31 -3c-39.333 0 -74 13 -104 39c-16 14 -28 29 -36 45c-3.33301 7.33301 -6 15.5 -8 24.5s-3 19.167 -3 30.5c0 38.667 13.167 72.5 39.5 101.5s58.166 43.5 95.499 43.5l18 -1l20 -3l17 -4
c6.66699 0 11.334 -0.666992 14.001 -2l11 -52l-11 6l-9 4l-27 8l-27 3c-14.667 0 -27 -2.33301 -37 -7c-16.667 -6 -31 -23.333 -43 -52c-3.33301 -12 -5 -24 -5 -36c0 -47.333 17.667 -80 53 -98c16.667 -4.66699 30 -7 40 -7h11l19 4c11.333 2 21.333 6.66699 30 14
c22 10 38.333 24.333 49 43v261h-332v41h477v-41h-92z" />
    <glyph glyph-name="p" unicode="p" horiz-adv-x="541" 
d="M475 475v-474.998h-53v199l-16 -20l-36 -29c-13.333 -10.667 -33.333 -21.334 -60 -32.001c-20 -8 -38.667 -12 -56 -12c-33.333 0 -61 9.66699 -83 29c-10 8.66699 -18.167 20.167 -24.5 34.5s-9.5 29.833 -9.5 46.5c0 35.333 16.667 69.666 50 102.999
c7.33301 7.33301 16 14 26 20l-164 1v41h305v-41h-67l-29 -20l-20 -16c-32.667 -26.667 -49 -55.334 -49 -86.001c0 -33.333 13 -55.666 39 -66.999l28 -4c38.667 0 78 18.667 118 56l21 20c18 19.333 27 33.333 27 42v210h-422v41h545v-41h-70z" />
    <glyph glyph-name="q" unicode="q" horiz-adv-x="5" 
d="M-44 -203c-31.333 -19.333 -67.6689 -28.999 -109.002 -28.999c-32.667 0 -70.667 9 -114 27l-39 18l-32 18c-20 12 -34 22 -42 30l34 43l37 -27l28 -19c46 -30.667 89.333 -46 130 -46c48.667 0 83.334 16.667 104.001 50c4.66699 9.33301 7 20.333 7 33
c-1.33301 8.66699 -3.66602 17 -6.99902 25l-15 20c-4 4.66699 -10 9.66699 -18 15l-23 4c-16 0 -33.333 -6.33301 -52 -19l-22 -22l-40 35l12 11l26 15c17.333 10 38 17 62 21l20 1c32 0 57.333 -9.33301 76 -28c10.667 -10.667 18.667 -22.334 24 -35.001
c4.66699 -17.333 7 -32.333 7 -45c0 -42 -18 -74 -54 -96z" />
    <glyph glyph-name="r" unicode="r" 
d="M418 475v-475.002h-53v332h-187c-10.667 0 -21 -2 -31 -6c-14.667 -2.66699 -26 -14 -34 -34l-4 -25c0 -45.333 14.167 -90.666 42.5 -135.999s53.5 -75 75.5 -89c6 -4 12.333 -6 19 -6l-35 -36c-2 0.666992 -3.83301 1.33398 -5.5 2.00098s-4.16699 2.66699 -7.5 6
l-28 27l-41 46l-17 24l-15 25c-14 24 -24.167 46.833 -30.5 68.5s-9.5 44.5 -9.5 68.5c0 30 7.66699 55 23 75c5.33301 8 14.333 15.333 27 22s25.667 10 39 10l219 1v100h-375v41h520v-41h-92z" />
    <glyph glyph-name="s" unicode="s" horiz-adv-x="3" 
d="M-119 516l-207 214l35 38l205 -252h-33z" />
    <glyph glyph-name="t" unicode="t" horiz-adv-x="637" 
d="M563 475v-475.001h-53v309h-155c4 -2 8.33301 -8.66699 13 -20l18 -44l10 -35l4 -27c0 -6 -0.166992 -12.333 -0.5 -19s-2.83301 -16 -7.5 -28c-9.33301 -28.667 -29 -49.667 -59 -63c-14.667 -5.33301 -31.334 -8 -50.001 -8c-44.667 0 -87.334 23.667 -128.001 71
c-27.333 33.333 -51.666 77.666 -72.999 132.999l-19 52l-4 22l43 32v-8l2 -13l18 -56c14.667 -45.333 35.334 -86.666 62.001 -123.999c32.667 -46.667 67 -70 103 -70c20 0 35.5 7.5 46.5 22.5s16.5 33.167 16.5 54.5c0 15.333 -3 32.666 -9 51.999
c-8 24.667 -17.667 44.334 -29 59.001l-26 38c-4 6.66699 -9 12.334 -15 17.001l239 1v127h-510v41h645v-41h-82z" />
    <glyph glyph-name="u" unicode="u" 
d="M424 475v-475h-53v297h-187v-86l-1 -14c0 -2.66699 -0.333008 -4.5 -1 -5.5s-3.66699 -3.83301 -9 -8.5l-11 -2c-4 0 -11.333 4.33301 -22 13l-37 39c-10 11.333 -20.667 26 -32 44c-6 10 -10 19 -12 27c0 11.333 5.33301 21 16 29l9 3l12 1l275 1v137h-371v41h506v-41
h-82z" />
    <glyph glyph-name="v" unicode="v" horiz-adv-x="576" 
d="M506 475l-0.00195312 -475.001h-51v227l-15 -4l-15 -3l-13 -2h-8l-18 1l-31 9l-11 5l3 -10l3 -7l5 -23l2 -22c0 -70 -34 -111.667 -102 -125l-28 -2c-14 0 -27.167 1.66699 -39.5 5s-25.833 9.33301 -40.5 18c-26 15.333 -52 38.333 -78 69
c-43.333 50.667 -65 85 -65 103l41 27l31 -55l25 -37c40.667 -60.667 83.334 -91 128.001 -91c30.667 0 54.334 18.667 71.001 56c4.66699 12 7 23.333 7 34s-0.333008 18.334 -1 23.001s-3 10.667 -7 18c-4.66699 18 -16.667 32.167 -36 42.5s-38.666 15.5 -57.999 15.5
h-17c-8 0 -15 -1.33301 -21 -4l-5 -2l-6 -1l-17 38h24l18.999 4c30.667 8 54.334 24.667 71.001 50c7.33301 12.667 11 26 11 40c0 12.667 -1.33301 22.667 -4 30c-4 18 -15.333 31.333 -34 40c-12 4.66699 -23.667 7 -35 7c-16.667 0 -35.334 -6.33301 -56.001 -19l-21 -16
l-16 -15l-20 -21l-39 31c0.666992 2 1.5 3.66699 2.5 5s3.83301 4.33301 8.5 9l33 27c32.667 26.667 70 40 112 40c32 0 60.333 -12.333 85 -37c20.667 -22 31 -49 31 -81c0 -42 -19 -73.667 -57 -95l5 -1l9 -2l12 -5l17 -8l9 -5l10 -4l11 -6l11 -4l23 -8l26 -2l20 1l35 9
l13 5v203h-96v41h219v-41h-72z" />
    <glyph glyph-name="w" unicode="w" horiz-adv-x="2" 
d="M86 -227c0 8 -4.33203 19.6709 -12.999 35.0039l-20 31l-18 26c-22 31.333 -44.167 54.166 -66.5 68.499s-46.5 21.5 -72.5 21.5c-20 0 -35 -6 -45 -18s-16.333 -29 -19 -51c0 -28.667 11.667 -48.334 35 -59.001l25 -5l16 2l17 7l7 4l8 5l27 -41l-13 -6l-32 -9l-32 -3
c-31.333 0 -58.5 10.167 -81.5 30.5s-34.5 46.166 -34.5 77.499c0 27.333 12 53.666 36 78.999c25.333 21.333 53.333 32 84 32c57.333 0 113.333 -31.333 168 -94c17.333 -19.333 30.666 -38 39.999 -56l14 -26l15 -27z" />
    <glyph glyph-name="x" unicode="x" horiz-adv-x="523" 
d="M424 475v-475h-53v475h-158v-285c-1.33301 -6.66699 -4 -11.667 -8 -15l-14 -4c-6.66699 0 -17 4 -31 12c-30 22 -54.333 48.667 -73 80c-7.33301 12.667 -11 23.667 -11 33c0 4.66699 0.666992 8 2 10l6 5l9 1l11 1l58 1v161h-162v41h536v-41h-112z" />
    <glyph glyph-name="y" unicode="y" horiz-adv-x="602" 
d="M527 475v-475.001h-52v303l-26 -7l-31 -15l-13 -9l-14 -13l-17 -20l-15 -24l-15 -29l-8 -23l-43 25l2 12l8 15l17 29l6 15c-4 12.667 -18.667 24.334 -44 35.001l-34 14l-31 5c-9.33301 0 -15.833 -0.333008 -19.5 -1s-9.66699 -2.83398 -18 -6.50098
s-18.166 -10.834 -29.499 -21.501c-18 -23.333 -27 -46.666 -27 -69.999c0 -50 28.667 -93.333 86 -130l35 -22l51 -24l-25 -42c-34 0 -79 29 -135 87c-40.667 42.667 -61 87.667 -61 135c0 40.667 13.667 73.834 41 99.501s62.666 38.5 105.999 38.5
c6 0 13 -0.166992 21 -0.5s18 -2.83301 30 -7.5c16.667 -4 31.667 -11.333 45 -22l27 -21c6 -4 9.33301 -8.33301 10 -13l9 7l8 6l19 13l14 9l23 8l25 7l10 1l13 2v130h-475v41h610v-41h-83z" />
    <glyph glyph-name="z" unicode="z" horiz-adv-x="5" 
d="M-357 0l-34 39l278 174v-41z" />
    <glyph glyph-name="braceleft" unicode="{" horiz-adv-x="313" 
d="M293 475v41h25v-41h-25zM371 281l-27.998 -8l-31 -5l-39 -1l-38 3l-48 10l-21 5l-27 9c-4 0 -9.33301 -2.33301 -16 -7l-23 -18c-24.667 -23.333 -37 -48.333 -37 -75c0 -16.667 3.33301 -31.334 10 -44.001c4 -8.66699 12 -16.667 24 -24l27 -11l35 -3h20l5 2l-2 4v16
l3 24l9 16c5.33301 5.33301 10 8.33301 14 9l19 4l21 -3c4.66699 -2 10.334 -6.33301 17.001 -13l10 -17l4 -20l-3 -17l-7 -13l-12 -10l-17 -5l11 -19l15 -16l14 -13l21 -15l-43 -30l-9 7l-20 20l-14 21l-5 9l-5 10l-4 12l-10 -4l-7 -1l-18 -4l-14 -1
c-12.667 0 -22 0.5 -28 1.5s-15.333 3.5 -28 7.5c-32.667 12 -58 35 -76 69c-6.66699 20 -10 38.333 -10 55c0 16 3.66699 30.5 11 43.5s18.666 27.167 33.999 42.5l19 15l26 18c-4.66699 2 -11.334 7.33301 -20.001 16l-20 31c-4 6.66699 -8.33301 16.667 -13 30l-4 30
c0 28 10 50 30 66s44.667 24 74 24s55.5 -8.16699 78.5 -24.5s34.5 -40.166 34.5 -71.499c0 -18 -6.33301 -35.667 -19 -53l-16 -17l-15 -13l-21 -14l9 -4l9 -1l31 -5l35 -1l40 1c13.333 0 23.666 1.66699 30.999 5l29 10c11.333 3.33301 22.333 9 33 17v-46zM203.002 441
c-2 5.33301 -6.33398 11.001 -13.001 17.001l-19 10l-21 4c-9.33301 0 -16.666 -1.33301 -21.999 -4l-18 -9c-5.33301 -4 -9.33301 -9.33301 -12 -16l-4 -21c0 -22.667 7.66699 -42.667 23 -60l9 -10l15 -11c8.66699 2 15 4.66699 19 8l14 8c22 16 33 37.667 33 65
c0 7.33301 -1.33301 13.666 -4 18.999z" />
    <glyph glyph-name="bar" unicode="|" horiz-adv-x="588" 
d="M521 475l0.00195312 -475.001h-52v145c-6.66699 -17.333 -40.334 -40 -101.001 -68c-30 -14 -62 -23.667 -96 -29l-30 -2c-61.333 0 -104 23.667 -128 71c-4.66699 16.667 -7 29.334 -7 38.001c0 12.667 1.33301 23 4 31c2 12.667 5.66699 21.667 11 27l6 7l9 9
c-12.667 0 -29.334 10.667 -50.001 32c-11.333 11.333 -19 26.333 -23 45l-1 17c0 32 14.667 55 44 69l18 4l27 3l129 1v75h-281v41h594v-41h-73zM469.002 474.999l-139 -0.000976562v-118h-162c-11.333 0 -19 -0.666992 -23 -2c-12 0 -21.333 -4.66699 -28 -14l-4 -22
c0 -13.333 5.33301 -26.666 16 -39.999l21 -20c6 -4 12 -6 18 -6l7 2l5 2l27 9l18 3h37l29 -2l18 -40l-6 -1h-34l-6 1c-42 0 -70 -6.5 -84 -19.5s-21 -29.833 -21 -50.5c0 -22 9 -39 27 -51l29 -15l34 -4c44 0 93.333 17.667 148 53l39 25c18 12.667 29.333 23 34 31v279z
" />
    <glyph glyph-name="braceright" unicode="}" 
d="M383 475l-0.000976562 -137h-195c-10.667 0 -20.167 -1.16699 -28.5 -3.5s-15.5 -6.5 -21.5 -12.5c-6 -4.66699 -10.333 -12.334 -13 -23.001l-4 -32c0 -52 29.333 -90 88 -114c18 -5.33301 36.333 -8 55 -8l10 1l15 2l18 3l-1 9c0 6 1.66699 12 5 18
c10 36.667 28 55 54 55c21.333 0 35.333 -9.66699 42 -29l3 -18c0 -16.667 -4.66699 -32 -14 -46c-4.66699 -8 -11 -14.333 -19 -19l-22 -5l4 -18l3 -12l7 -29l11 -34l4 -10l3 -10l3 -9l5 -21l2 -17c0 -6.66699 -0.666992 -11.334 -2 -14.001l-5 -11l-9 -8l-14 -5l-29 86
l-15 -13l-32 -21c-16.667 -8.66699 -34.5 -16 -53.5 -22s-37.5 -9 -55.5 -9c-29.333 0 -58.5 11.167 -87.5 33.5s-43.5 49.5 -43.5 81.5c0 22 8 41.667 24 59c17.333 17.333 37.333 28 60 32l-20 17l-13 16c-4.66699 6 -9 12.333 -13 19c-1.33301 2 -5.66602 10 -12.999 24
c-2.66699 8.66699 -4.66699 16.334 -6 23.001s-2 14.334 -2 23.001c0 36.667 9.5 64 28.5 82s42.833 27 71.5 27l162 1v98h-330v41h490v-41h-107zM313.999 111l-12 -3.00293l-25 -2h-11l-17 1l-75 8l-29 -3c-17.333 -5.33301 -29.333 -15.666 -36 -30.999
c-2 -4.66699 -3.33301 -8.66699 -4 -12s-1 -9.66602 -1 -18.999c0 -18 7.66699 -34.333 23 -49c4.66699 -4 13 -8.66699 25 -14l30 -5c10.667 0 18.667 0.333008 24 1s13.333 3 24 7c12 2.66699 29.667 10 53 22l32 20c8.66699 6.66699 13.667 11.334 15 14.001z" />
    <glyph glyph-name="asciitilde" unicode="~" horiz-adv-x="5" 
d="M-21 -205l-133 146l45 22l109 -145z" />
    <glyph glyph-name="c144" horiz-adv-x="494" 
d="M201 250l0.000976562 -90.998l-1 -6l-8 -7l-10 -2c-6 0 -14.667 4.33301 -26 13c-16 11.333 -30.667 24.666 -44 39.999l-38 45c-6.66699 10 -11 19 -13 27l3 8l8 8l9 5l7 2l60 1v140c0 12 -4.33301 22.333 -13 31s-19.334 13 -32.001 13c-6 0 -12.667 -1.33301 -20 -4
l-17 -9l-11 -16l-4 -21l1 -14l5 -15l2 -7l5 -9l-50 1l-4 7l-1 6l-4 14l-1 13c0 29.333 9.83301 52.166 29.5 68.499s43.5 24.5 71.5 24.5c44 0 73.667 -17 89 -51c4.66699 -14 7 -26.333 7 -37v-135h157v182h-98v41h248v-41h-97v-475h-53v250h-157z" />
    <glyph glyph-name="nonbreakingspace" unicode="&#xa0;" horiz-adv-x="379" 
 />
    <glyph glyph-name="exclamdown" unicode="&#xa1;" horiz-adv-x="12" 
d="M-207 699v55h59v-55h-59zM-64 618c-13.333 -13.333 -29.333 -23.666 -48 -30.999c-21.333 -6.66699 -43 -10 -65 -10c-46.667 0 -83 12.667 -109 38s-43 59.666 -51 102.999l52 1c0 -30.667 10.333 -56 31 -76c20.667 -18.667 46.667 -28 78 -28c46 0 79 19.333 99 58
c5.33301 14.667 8 29.667 8 45l51 1c0 -37.333 -15.333 -71 -46 -101z" />
    <glyph glyph-name="cent" unicode="&#xa2;" horiz-adv-x="3" 
d="M-319 516l-207 214l35 38l205 -252h-33z" />
    <glyph glyph-name="sterling" unicode="&#xa3;" horiz-adv-x="632" 
d="M512 210l-3.99902 -7.99902c-7.33301 -9.33301 -19 -16 -35 -20l-18 -1c-47.333 0 -83 21.333 -107 64c-5.33301 14.667 -8 29.667 -8 45c0 26 9.16699 49.167 27.5 69.5s41.166 33.5 68.499 39.5l23 2l22 -3l23 -8l12 -36l-23 6l-25 3
c-13.333 0 -23.333 -1.66699 -30 -5c-17.333 -2 -31.333 -13.333 -42 -34c-3.33301 -8.66699 -5 -19.334 -5 -32.001l3 -30c4 -14.667 12 -25.667 24 -33l19 -4c16 0 30 5 42 15l20 18l16 24v-59zM390.001 85.001l-41 29l118 79l8 -38zM256.001 332.001
c0 -30 -13.667 -51.998 -41 -65.998l-36 -10l-46 -3l24 -53l24 -37c18 -28.667 42.833 -50.834 74.5 -66.501s64.5 -23.5 98.5 -23.5c44 0 83 13 117 39l44 45v-52c-8 -10 -17.667 -19.667 -29 -29l-17 -10l-22 -13l-47 -16l-50 -5c-30 0 -54 2.66699 -72 8
c-48.667 13.333 -90.667 42 -126 86c-24.667 31.333 -44 62.666 -58 93.999l-17 40l-28 81l45 24l17 -56l6 -6l6 -4l16 -7l19 -2l20 3c12 4 20 11.667 24 23l3 19v140h-205v41h668v-41h-97v-475h-53v475h-262v-143z" />
    <glyph glyph-name="currency" unicode="&#xa4;" horiz-adv-x="220" 
d="M148 43l0.00195312 -25.999h-96v-70l14 -16l13 3l8 1l9 1h14l22 -31l-33 -3l-29 -9c-16 -6.66699 -25.333 -17.334 -28 -32.001v-4l2 -6l2 -4l4 -5c5.33301 -5.33301 11 -9.33301 17 -12l22 -4c19.333 0 39.333 5.16699 60 15.5s32 17.833 34 22.5v-43l-10 -6l-18 -9
l-23 -8l-19 -5c-16.667 0 -33.334 5 -50.001 15s-28.334 22.667 -35.001 38c-3.33301 7.33301 -6 18 -8 32l1 14l6 13c2 5.33301 5.33301 9.33301 10 12l15 9l-36 29v88h132z" />
    <glyph glyph-name="yen" unicode="&#xa5;" horiz-adv-x="576" 
d="M510 475v-474.999h-53v219l-20 -6l-20 -1l-17 1l-16 3c-9.33301 1.33301 -15.333 3 -18 5l-16 8c-1.33301 -8 -3 -15.667 -5 -23s-6 -18 -12 -32l-8 -24c-29.333 -50 -72.666 -75 -129.999 -75c-35.333 0 -80.666 15 -135.999 45c-8.66699 4 -19.334 12 -32.001 24l34 38
c1.33301 -4 5.66602 -9 12.999 -15l31 -21c7.33301 -4.66699 15.5 -9.33398 24.5 -14.001s17.333 -8.16699 25 -10.5s14.5 -4.16602 20.5 -5.49902s12.667 -2 20 -2c30 0 55 12.333 75 37c11.333 16 20 37.667 26 65l2 24c0 53.333 -19 89.666 -57 108.999
c-13.333 6 -27.333 9 -42 9c-6 0 -12.667 -1.33301 -20 -4l-22 -9l-10 -6l-12 -8l-35 40l19 7l14 7l35 12l27 4c51.333 0 92.333 -22.333 123 -67l15 -28l15 -39l9 -4l9 -3l16 -6l14 -1c12.667 0 23.5 1.16699 32.5 3.5s18.5 6.5 28.5 12.5v206h-457v41h582v-41h-72z" />
    <glyph glyph-name="section" unicode="&#xa7;" horiz-adv-x="220" 
d="M148 43l0.00195312 -25.999h-96v-70l14 -16l13 3l8 1l9 1h14l22 -31l-33 -3l-29 -9c-16 -6.66699 -25.333 -17.334 -28 -32.001v-4l2 -6l2 -4l4 -5c5.33301 -5.33301 11 -9.33301 17 -12l22 -4c19.333 0 39.333 5.16699 60 15.5s32 17.833 34 22.5v-43l-10 -6l-18 -9
l-23 -8l-19 -5c-16.667 0 -33.334 5 -50.001 15s-28.334 22.667 -35.001 38c-3.33301 7.33301 -6 18 -8 32l1 14l6 13c2 5.33301 5.33301 9.33301 10 12l15 9l-36 29v88h132z" />
    <glyph glyph-name="dieresis" unicode="&#xa8;" horiz-adv-x="215" 
d="M141 475v-475h-53v475h-88v41h66l-193 214l37 38l203 -252h100v-41h-72z" />
    <glyph glyph-name="copyright" unicode="&#xa9;" horiz-adv-x="215" 
d="M141 475v-475h-53v475h-88v41l-203 132l37 41l193 -173h49l-168 226l47 26l158 -252h100v-41h-72z" />
    <glyph glyph-name="ordfeminine" unicode="&#xaa;" horiz-adv-x="12" 
d="M-127 -143l-123 153l-135 -153h-60l166 180h54l157 -180h-59z" />
    <glyph glyph-name="guillemotleft" unicode="&#xab;" horiz-adv-x="324" 
d="M-2 475v41h371v-41h-371zM172 45l-30.999 45l248 129l-57 55c-39.333 38 -67 57 -83 57c-24.667 0 -56.667 -10.333 -96 -31l-67 -35l-31 40l31 17l87 36l50 18c11.333 4 21.666 6 30.999 6c18 0 48.333 -21.667 91 -65l69 -70v-58z" />
    <glyph glyph-name="registered" unicode="&#xae;" horiz-adv-x="215" 
d="M141 475v-475h-53v475h-88v41h66l-193 214l37 38l203 -252h100v-41h-72z" />
    <glyph glyph-name="plusminus" unicode="&#xb1;" horiz-adv-x="12" 
d="M-86 602v56h61v-56h-61zM-30 711l-7 3.00098l-19 4l-21 2c-19.333 0 -35 -6.83301 -47 -20.5s-18 -30.5 -18 -50.5c0 -14.667 2.83301 -30.334 8.5 -47.001s13.5 -31.667 23.5 -45l14 -19l19 -23l-38 1c-5.33301 4 -10 8.66699 -14 14l-23 36l-13 27l-13 28
c-6 18 -9 34.667 -9 50c0 28 10.833 50 32.5 66s47.167 24 76.5 24l29 -3l27 -9l-1 -40z" />
    <glyph glyph-name="threesuperior" unicode="&#xb3;" horiz-adv-x="588" 
d="M510 279v59h62v-59h-62zM451 475v-131h-213l-6 -8l-1 -7l1 -11c1.33301 -6 3 -10 5 -12l8 -16l15 -21l15 -18l15 -12l15 -9l15 -2h6l4 1l69 20l25 6l17 2c14.667 0 28 -9 40 -27l8 -25l3 -28c0 -14 -0.666992 -25.833 -2 -35.5s-4.33301 -20.5 -9 -32.5
c-14 -40 -41.333 -67.333 -82 -82c-20 -6.66699 -40.333 -10 -61 -10c-48 0 -96.667 19.333 -146 58c-41.333 31.333 -76.666 67.333 -105.999 108l-31 42l-10 20l39 38c1.33301 -6 4.66602 -13.333 9.99902 -22c2 -5.33301 11 -18.666 27 -39.999
c9.33301 -14 17 -25 23 -33l24 -27l49 -47c14 -12.667 35.333 -26.334 64 -41.001c20 -10 39 -15 57 -15c29.333 0 54 10.333 74 31c10 10.667 17.333 22.667 22 36s7 30 7 50c0 22 -8.66699 33 -26 33c-6 0 -13.667 -1.66699 -23 -5c-12.667 -2 -25.667 -6.33301 -39 -13
l-21 -7l-14 -2c-32 0 -64 20.5 -96 61.5s-48 74.5 -48 100.5l3 19c2 6 5.66699 10.333 11 13l17 7l22 2l173 1v90h-400v41h586v-41h-135z" />
    <glyph glyph-name="acute" unicode="&#xb4;" horiz-adv-x="576" 
d="M510 475v-474.999h-53v219l-20 -6l-20 -1l-17 1l-16 3c-9.33301 1.33301 -15.333 3 -18 5l-16 8c-1.33301 -8 -3 -15.667 -5 -23s-6 -18 -12 -32l-8 -24c-29.333 -50 -72.666 -75 -129.999 -75c-35.333 0 -80.666 15 -135.999 45c-8.66699 4 -19.334 12 -32.001 24l34 38
c1.33301 -4 5.66602 -9 12.999 -15l31 -21c7.33301 -4.66699 15.5 -9.33398 24.5 -14.001s17.333 -8.16699 25 -10.5s14.5 -4.16602 20.5 -5.49902s12.667 -2 20 -2c30 0 55 12.333 75 37c11.333 16 20 37.667 26 65l2 24c0 53.333 -19 89.666 -57 108.999
c-13.333 6 -27.333 9 -42 9c-6 0 -12.667 -1.33301 -20 -4l-22 -9l-10 -6l-12 -8l-35 40l19 7l14 7l35 12l27 4c51.333 0 92.333 -22.333 123 -67l15 -28l15 -39l9 -4l9 -3l16 -6l14 -1c12.667 0 23.5 1.16699 32.5 3.5s18.5 6.5 28.5 12.5v206h-457v41h582v-41h-72z" />
    <glyph glyph-name="paragraph" unicode="&#xb6;" horiz-adv-x="420" 
d="M416 324c-10.667 -4 -19.668 -10.333 -27.001 -19c-10 -8.66699 -17.333 -18.334 -22 -29.001l-7 -15l-8 -20v-241h-53v199c-6 -8 -13.333 -14 -22 -18l-23 -11l-25 -7l-25 -2c-12 0 -20.833 0.5 -26.5 1.5s-14.167 3.5 -25.5 7.5c-33.333 14 -56.666 37 -69.999 69
c-2.66699 6.66699 -5 14.834 -7 24.501s-3 19.167 -3 28.5v183h-72v41h418v-41h-66v-153l20 17l28 19l30 15l25 5v-44zM298.999 475l-176 -0.000976562v-190c0 -30 7.66699 -52.667 23 -68c3.33301 -3.33301 10.333 -7.66602 21 -12.999l32 -4c28 0 51.667 9.33301 71 28
c15.333 15.333 25 32 29 50v197z" />
    <glyph glyph-name="periodcentered" unicode="&#xb7;" horiz-adv-x="361" 
d="M341 26c-20 -15.333 -46.001 -26 -78.001 -32l-34 -2c-34 0 -69 10 -105 30l-53 31c-23.333 15.333 -38 28.666 -44 39.999l36 36c0 -4 4.66699 -10.667 14 -20l40 -33c38 -32 74 -48 108 -48h19l18 4c29.333 8 49.333 22.333 60 43c6.66699 13.333 10 26.333 10 39
c0 11.333 -5.33301 25.333 -16 42c-13.333 19.333 -31.333 38.666 -54 57.999l-66 54l-64 56c-25.333 22 -43.666 41.667 -54.999 59c-10.667 19.333 -16 35.333 -16 48c0 28.667 8.66699 49.834 26 63.501s40.333 20.5 69 20.5l209 1v-39l-211 -2
c-6 0 -11.667 -1.33301 -17 -4l-15 -9l-11 -14l-4 -15c0 -13.333 24 -40.666 72 -81.999l135 -113c20.667 -16.667 39 -38 55 -64c12 -20 18 -37.333 18 -52c0 -40 -15.333 -72 -46 -96z" />
    <glyph glyph-name="periodcentered" unicode="&#x2219;" horiz-adv-x="361" 
d="M341 26c-20 -15.333 -46.001 -26 -78.001 -32l-34 -2c-34 0 -69 10 -105 30l-53 31c-23.333 15.333 -38 28.666 -44 39.999l36 36c0 -4 4.66699 -10.667 14 -20l40 -33c38 -32 74 -48 108 -48h19l18 4c29.333 8 49.333 22.333 60 43c6.66699 13.333 10 26.333 10 39
c0 11.333 -5.33301 25.333 -16 42c-13.333 19.333 -31.333 38.666 -54 57.999l-66 54l-64 56c-25.333 22 -43.666 41.667 -54.999 59c-10.667 19.333 -16 35.333 -16 48c0 28.667 8.66699 49.834 26 63.501s40.333 20.5 69 20.5l209 1v-39l-211 -2
c-6 0 -11.667 -1.33301 -17 -4l-15 -9l-11 -14l-4 -15c0 -13.333 24 -40.666 72 -81.999l135 -113c20.667 -16.667 39 -38 55 -64c12 -20 18 -37.333 18 -52c0 -40 -15.333 -72 -46 -96z" />
    <glyph glyph-name="cedilla" unicode="&#xb8;" horiz-adv-x="287" 
d="M353 167l-30.999 -14.0029l-17 -5l-16 -4c-9.33301 0 -15.333 -0.666992 -18 -2l-16 -1c-25.333 0 -47.833 3.5 -67.5 10.5s-39.667 19.167 -60 36.5s-35.5 36.333 -45.5 57c-9.33301 22 -14 46.667 -14 74l8 -2c9.33301 -1.33301 15.333 -2.66602 18 -3.99902h10l34 3
c21.333 4 36.666 16 45.999 36c4.66699 12 7 24 7 36c0 9.33301 -1.83301 18.5 -5.5 27.5s-6.16699 14.5 -7.5 16.5l-12 18l-11 11l-14 13l-141 1v41h291v-41h-86l20 -27c6 -8 11.333 -18.667 16 -32l5 -30c0 -44.667 -19.333 -77 -58 -97l-25 -8l-34 -7l3 -9l4 -8l3 -7
l3 -6c10 -19.333 26 -35.666 48 -48.999c19.333 -10.667 40 -16 62 -16c28 0 54 8 78 24c12.667 8.66699 23 17.334 31 26.001s14.667 18.667 20 30v-71c-10 -10 -19.333 -17 -28 -21z" />
    <glyph glyph-name="ordmasculine" unicode="&#xba;" horiz-adv-x="445" 
d="M229 219c-16 0 -29 -2.66602 -39 -7.99902c-7.33301 -2 -18 -9 -32 -21c-19.333 -16 -29 -38.667 -29 -68c0 -44 38.667 -76 116 -96l33 -4l25 -4l58 -7l-17 -36l-22 -1c-5.33301 0 -15 1 -29 3s-31.333 5 -52 9s-34.667 7.66699 -42 11c-50 14 -86 37.333 -108 70
c-11.333 17.333 -17 37.666 -17 60.999c0 16 5.33301 32.667 16 50c5.33301 8.66699 11.666 16.667 18.999 24l24 24l-21 22l-13 17c-12.667 16.667 -21.667 31 -27 43l-8 37l3 18l11 14l15 8l18 3l211 1v86h-322v41h445v-41h-70v-129h-238c-6 0 -10.667 -1.66699 -14 -5
l-4 -10l4 -16c4.66699 -9.33301 9.33398 -16.333 14.001 -21l8 -13l12 -14l2 -4l5 -4l291 1v-41h-226z" />
    <glyph glyph-name="guillemotright" unicode="&#xbb;" horiz-adv-x="553" 
d="M240 404v69h69v-69h-69zM14 234v43h513v-43h-513zM240 43v68h69v-68h-69z" />
    <glyph glyph-name="onequarter" unicode="&#xbc;" horiz-adv-x="240" 
d="M230 -176l-11 15l-27 44l-40 76l-17 39l-15 41c-13.333 40 -23.333 78.833 -30 116.5s-10 71.5 -10 101.5c0 79.333 12.667 154.666 38 225.999c20.667 58.667 44.667 109.334 72 152.001l27 41c4.66699 7.33301 9 12 13 14l59 1c-16 -16.667 -34.333 -41.667 -55 -75
l-25 -48l-27 -60l-22 -63l-15 -62l-9 -63l-3 -63c0 -16.667 0.666992 -34.334 2 -53.001s4 -38 8 -58c10 -57.333 31 -119.666 63 -186.999c15.333 -32 29.333 -57.333 42 -76l41 -59h-59z" />
    <glyph glyph-name="onehalf" unicode="&#xbd;" horiz-adv-x="252" 
d="M194 94c-19.333 -74 -49.666 -144.002 -90.999 -210.002l-28 -45l-9 -13l-2 -2h-56l20 30l20 29l21 36l20 39l34 77c10.667 24 21 61.667 31 113c2.66699 16 5 34.167 7 54.5s3 38.5 3 54.5c0 80.667 -13.333 157 -40 229l-22 53.5c-7.33301 17 -17.333 37.167 -30 60.5
c-6.66699 11.333 -10.334 17.666 -11.001 18.999c-4 6.66699 -8 12.334 -12 17.001l-29 40l-10 12l-2 2l56 1l12 -15l27 -41l21 -36c40 -76 67 -152 81 -228c2.66699 -16 5 -34.667 7 -56s3 -40.666 3 -57.999c0 -53.333 -7 -107.666 -21 -162.999z" />
    <glyph glyph-name="threequarters" unicode="&#xbe;" horiz-adv-x="564" 
d="M18 332v43h513v-43h-513zM18 135v43h513v-43h-513z" />
    <glyph glyph-name="questiondown" unicode="&#xbf;" horiz-adv-x="203" 
d="M244 -182c-67.333 0 -110.333 22.668 -129 68.001c-7.33301 16.667 -11 34.334 -11 53.001v209c0 22 -6 44.167 -18 66.5s-29.667 40.5 -53 54.5l10 8l9 6l18 15l12 15l8 15l7 20l5 20l2 16v210c0 13.333 3 28.666 9 45.999c12 32 31.333 54.333 58 67
c15.333 6.66699 29.666 10 42.999 10l13 -2l17 -3l82 1v-31h-80c-10 0 -17.167 -0.5 -21.5 -1.5s-10.166 -3.16699 -17.499 -6.5c-24.667 -10 -42.667 -26 -54 -48c-4.66699 -14 -7 -25.667 -7 -35l-2 -223c0 -6.66699 -1.33301 -14.334 -4 -23.001
c0 -4 -0.333008 -7.33301 -1 -10s-3 -7.66699 -7 -15l-11 -18l-53 -32l10 -8l8 -4c8 -3.33301 14 -8 18 -14l13 -11l4 -7l6 -8l9 -25l7 -27l3 -21v-204c0 -28 9 -49 27 -63c12 -9.33301 29 -16 51 -20l22 -1h80v-39h-82z" />
    <glyph glyph-name="Agrave" unicode="&#xc0;" horiz-adv-x="385" 
d="M293 221c-5.33301 -9.33301 -10.668 -21.668 -16.001 -37.001l-4 -37v-208c0 -38 -14.333 -68.333 -43 -91c-17.333 -13.333 -40.333 -22.666 -69 -27.999l-30 -2h-80v39h78c29.333 0 53 7 71 21c18 11.333 27 32.333 27 63l2 225l8 26l10 25l13 18l12 10l17 13l7 4l11 7
l-51 34l-11 13l-8 20l-8 26l-2 22v208c0 24 -10.167 44.833 -30.5 62.5s-42.833 26.5 -67.5 26.5l-78 1v31h80l8 1l7 2l6 1h9c30 0 56.167 -13.167 78.5 -39.5s33.5 -54.5 33.5 -84.5l1 -227c0 -7.33301 1.33301 -13.333 4 -18l6 -18l8 -16l5 -8l15 -15l10 -8l8 -6l12 -8
c-19.333 -10 -35.666 -26 -48.999 -48z" />
    <glyph glyph-name="Aacute" unicode="&#xc1;" horiz-adv-x="445" 
d="M377 475v-474.999h-53v217l-250 -217l-39 35l168 133c-38 0 -67.667 12.667 -89 38c-10.667 12 -19.667 27 -27 45c-6 17.333 -9 35.666 -9 54.999v169h-78v41h445v-41h-68zM322 475.001l-193 0.000976562v-176c0 -38 18.667 -67.333 56 -88l30 -5c12 0 23 2.66699 33 8
c18.667 9.33301 31.667 17.666 39 24.999l15 13l20 20v203z" />
    <glyph glyph-name="Atilde" unicode="&#xc3;" horiz-adv-x="445" 
d="M451 516l0.000976562 -41.001h-113v-131h-209l-3 -4l-3 -5l1 -14l4 -11l9 -15l15 -19l29 -32l16 -13l14 -3c12.667 0 29 3 49 9l26 9l24 7l20 2c16 0 29.333 -7.33301 40 -22c2.66699 -4 6.33398 -12.333 11.001 -25l4 -27c0 -22.667 -3.66699 -43.667 -11 -63
c-9.33301 -26 -27 -49.333 -53 -70l-25 -18c-18.667 -8.66699 -34.667 -13 -48 -13l11 -12l10 -7l22 -19l18 -16l40 -26l28 -17l-27 -43l-15 10l-11 7c-3.33301 2 -7.83301 5 -13.5 9s-11.167 8.66699 -16.5 14l-51 44l-25 25l-19 17l-8 10h-35
c-9.33301 0 -20.333 1.66699 -33 5c-4.66699 0 -9.66699 1.66699 -15 5c-31.333 10 -47 31.333 -47 64l3 17c2 6 5.33301 11.333 10 16l14 10l19 4c21.333 0 45.666 -13 72.999 -39l13 -17l18 -22c13.333 0 25 1.66699 35 5c10.667 1.33301 19 4 25 8c40.667 18 61 50 61 96
l-1 19c0 8.66699 -0.833008 14.5 -2.5 17.5s-3.16699 5.16699 -4.5 6.5l-10 4l-16 -4l-33 -12l-38 -11l-28 -4c-26.667 0 -55.834 21.5 -87.501 64.5s-47.5 74.833 -47.5 95.5l3 15l11 14l16 10l17 4l174 1v90h-285v41h286l-20 29l-19 36l-19 48c-4 15.333 -6 29.333 -6 42
c0 26.667 10.667 48.334 32 65.001s47 25 77 25l29 -3l27 -9v-40l-8 2l-7 3l-20 4l-20 2c-28 0 -48.333 -13.667 -61 -41l-4 -30c0 -16 4 -34.667 12 -56l10 -22l16 -28l19 -28z" />
    <glyph glyph-name="Adieresis" unicode="&#xc4;" horiz-adv-x="536" 
d="M363 133l-31.999 -14l-47 -15l-42 -5c-6.66699 0 -13.834 0.166992 -21.501 0.5s-17.5 2.83301 -29.5 7.5c-36.667 12 -63 32 -79 60c-6.66699 15.333 -10 30.333 -10 45c0 27.333 9.33301 50.333 28 69l11 11l17 14l-24 10l-16 10c-26.667 16.667 -40 41 -40 73l2 20
l7 23l10 20l10 12l-107 1v41h548v-41h-97v-475h-53v153zM398.001 475l-228 0.000976562l-12 -11l-8 -8l-16 -26l-5 -27c0 -18.667 8.66699 -35.334 26 -50.001l22 -14l24 -4l86 1l18 -37h-55c-10 0 -20.667 -2.33301 -32 -7c-42.667 -13.333 -64 -40 -64 -80
c0 -22 9.33301 -39.333 28 -52l31 -16l37 -4c16 0 34 3.5 54 10.5s35.333 13.5 46 19.5l14 9l34 23v273z" />
    <glyph glyph-name="Aring" unicode="&#xc5;" horiz-adv-x="672" 
d="M365 475l12.001 -17.0029l8 -12c6 -8 11.333 -19.667 16 -35l5 -33c0 -40 -18.667 -71.333 -56 -94l29 -20l7 -8l12 -13l2 -3l4 -3l18 19l15 15l21 15l21 11l20 7l21 2c30 0 55.667 -11.5 77 -34.5s32 -49.5 32 -79.5c0 -8.66699 -0.333008 -15.667 -1 -21
s-2.5 -13.166 -5.5 -23.499s-5.5 -18.166 -7.5 -23.499s-6 -14 -12 -26c-19.333 -39.333 -39.333 -69.666 -60 -90.999l-47 28l24 28l18 23c28 36 42 72 42 108l-3 26l-9 22c-10.667 16.667 -27.334 25 -50.001 25c-19.333 0 -41.333 -12.333 -66 -37l-12 -16l-14 -22v-15
l1 -7c0 -38.667 -7 -70 -21 -94c-23.333 -39.333 -61.666 -59 -114.999 -59c-52.667 0 -99 26 -139 78c-31.333 41.333 -55.666 89.666 -72.999 144.999l-17 56l-3 25l43 33l18 -77c12 -55.333 31.667 -102.333 59 -141c18 -26 35.5 -45.167 52.5 -57.5
s36.167 -18.5 57.5 -18.5c32.667 0 56 10 70 30l10 26l4 37c0 18.667 -1.66699 31.667 -5 39c0 11.333 -4.33301 22.333 -13 33c-12.667 22.667 -31.334 34 -56.001 34l-78 1l-20 43h92l18 6c5.33301 2 9.66602 4.66699 12.999 8c20.667 16.667 31 38.334 31 65.001
c0 18.667 -8.66699 39.667 -26 63l-11 12l-15 17l-303 1v41h682v-41h-317z" />
    <glyph glyph-name="AE" unicode="&#xc6;" horiz-adv-x="215" 
d="M638 711l-5.99805 3.00098l-19 4l-19 2c-20 0 -36.5 -6.5 -49.5 -19.5s-19.5 -30.167 -19.5 -51.5c0 -16 3.16699 -31.833 9.5 -47.5s14.5 -30.5 24.5 -44.5l14 -19l21 -23l-59 1l-25 22l-24 24c-12 12 -24 22.333 -36 31l-23 17l-60 40
c-20.667 14 -44.334 25.5 -71.001 34.5s-49.667 13.5 -69 13.5c-16 0 -29.333 -2.66699 -40 -8c-24 -8 -43 -27.333 -57 -58c-4.66699 -16.667 -7 -32.334 -7 -47.001l1 -20l6 -22l7 -20l4 -8l72 1v-41h-72v-475h-53v475h-88v41h92l-3 3l-3 13l-9 33l-3 28
c0 41.333 14.333 76.333 43 105s66.334 43 113.001 43c27.333 0 55.666 -5.66699 84.999 -17c37.333 -14 68.666 -30 93.999 -48l37 -27l46 -39l-4 8l-1 7l-4 21l-1 25c0 41.333 21 69.333 63 84c12 4 25.667 6 41 6l32 -3l28 -9v-40z" />
    <glyph glyph-name="Ccedilla" unicode="&#xc7;" horiz-adv-x="216" 
d="M535 516l-24.999 22.001l-24 24c-12 12 -24 22.333 -36 31l-23 17l-60 40c-20.667 14 -44.334 25.5 -71.001 34.5s-49.667 13.5 -69 13.5c-16 0 -29.333 -2.66699 -40 -8c-24 -8 -43 -27.333 -57 -58c-4.66699 -16.667 -7 -32.334 -7 -47.001l1 -20l5 -23l6 -19l4 -8
l87 1v-41h-85v-475h-53v475h-88v41h91l-4 9l-6 25l-6 27l-1 16c0 18 1.5 33 4.5 45s9.16699 24.333 18.5 37c18 24.667 41.333 43 70 55c20.667 7.33301 41.667 11 63 11c50.667 0 107.667 -19.333 171 -58c26 -16 49.333 -32.333 70 -49l72 -60l29 -30l30 -29z
M555.001 613.001v65h69v-65h-69z" />
    <glyph glyph-name="Egrave" unicode="&#xc8;" horiz-adv-x="215" 
d="M140 475v-475h-52v475h-88v41h76l1 4c0 16 -26.667 54.667 -80 116c-32 37.333 -60 56 -84 56c-21.333 0 -38 -8.33301 -50 -25c-6 -9.33301 -11.667 -23.333 -17 -42l-1 -19c0 -8.66699 1.16699 -16.667 3.5 -24l6 -18.5c1.66699 -5 3.5 -9.5 5.5 -13.5l13 -25l7 -10
l-58 1l-12 16l-10 20l-7 22l-2 23c0 10 0.333008 17.333 1 22s3.33398 13.667 8.00098 27c19.333 56.667 56.333 85 111 85c23.333 0 48 -9 74 -27c31.333 -21.333 57.666 -48.333 78.999 -81l29 -45l36 -63l95 1v-41h-84zM135 578v65h69v-65h-69z" />
    <glyph glyph-name="Eacute" unicode="&#xc9;" horiz-adv-x="215" 
d="M584 602v56h59v-56h-59zM638 711l-5.99805 3.00098l-19 4l-19 2c-20 0 -36.5 -6.5 -49.5 -19.5s-19.5 -30.167 -19.5 -51.5c0 -16 3.16699 -31.833 9.5 -47.5s14.5 -30.5 24.5 -44.5l14 -19l21 -23l-59 1l-25 22l-24 24c-12 12 -24 22.333 -36 31l-23 17l-60 40
c-20.667 14 -44.334 25.5 -71.001 34.5s-49.667 13.5 -69 13.5c-16 0 -29.333 -2.66699 -40 -8c-24 -8 -43 -27.333 -57 -58c-4.66699 -16.667 -7 -32.334 -7 -47.001l1 -20l6 -22l7 -20l4 -8l72 1v-41h-72v-475h-53v475h-88v41h92l-3 3l-3 13l-9 33l-3 28
c0 41.333 14.333 76.333 43 105s66.334 43 113.001 43c27.333 0 55.666 -5.66699 84.999 -17c37.333 -14 68.666 -30 93.999 -48l37 -27l46 -39l-4 8l-1 7l-4 21l-1 25c0 41.333 21 69.333 63 84c12 4 25.667 6 41 6l32 -3l28 -9v-40z" />
    <glyph glyph-name="Ecircumflex" unicode="&#xca;" horiz-adv-x="215" 
d="M140 475v-475h-52v475h-88v41h76l1 4c0 16 -26.667 54.667 -80 116c-32 37.333 -60 56 -84 56c-21.333 0 -38 -8.33301 -50 -25c-6 -9.33301 -11.667 -23.333 -17 -42l-1 -19c0 -8.66699 1.16699 -16.667 3.5 -24l6 -18.5c1.66699 -5 3.5 -9.5 5.5 -13.5l13 -25l7 -10
l-58 1l-12 16l-10 20l-7 22l-2 23c0 10 0.333008 17.333 1 22s3.33398 13.667 8.00098 27c19.333 56.667 56.333 85 111 85c23.333 0 48 -9 74 -27c31.333 -21.333 57.666 -48.333 78.999 -81l29 -45l36 -63l95 1v-41h-84zM234 731l-7 2.99902l-20 4l-20 2
c-28 0 -48.333 -13.667 -61 -41l-4 -30c0 -16 3 -32.167 9 -48.5s13.667 -30.833 23 -43.5l13 -19l20 -23l-37 1c-4.66699 0 -9.66699 4.66699 -15 14l-23 36c-23.333 36.667 -35 71.667 -35 105c0 26.667 10.667 48.334 32 65.001s47 25 77 25l29 -3l27 -9v-40z" />
    <glyph glyph-name="Edieresis" unicode="&#xcb;" horiz-adv-x="264" 
d="M248 475v41h20v-41h-20zM341 158l-35.9961 -25.002c-38.667 -26.667 -82.334 -40 -131.001 -40c-31.333 0 -60.666 10.167 -87.999 30.5s-41 45.833 -41 76.5c0 22 8.33301 43.667 25 65l10 10l16 13c-10.667 4.66699 -20.667 12.334 -30 23.001
c-20.667 21.333 -34.667 39.666 -42 54.999l-8 20c-2.66699 6.66699 -4.66699 12.834 -6 18.501s-2 11.834 -2 18.501c0 30 9.33301 54.333 28 73s43 28 73 28c41.333 0 69.666 -16 84.999 -48c3.33301 -8.66699 5.66602 -18.667 6.99902 -30v-30h-45v31
c0 26.667 -15 40 -45 40c-14 0 -26.333 -6.33301 -37 -19l-10 -20l-3 -23c0 -15.333 1.66699 -28 5 -38c1.33301 -4.66699 3.16602 -9.33398 5.49902 -14.001s6.16602 -10.667 11.499 -18c10 -14 19.333 -25.333 28 -34c4 -3.33301 8.5 -5.83301 13.5 -7.5l10.5 -3.5l34 10
l39 4l18 -1l20 -2l22 -38l-67 -3c-19.333 0 -32.333 -1.66699 -39 -5c-41.333 -9.33301 -62 -33.666 -62 -72.999c0 -28.667 17.667 -50 53 -64l31 -4c40 0 81 15.667 123 47l22 20l26 28v-53c0 -5.33301 -4.66699 -11.333 -14 -18z" />
    <glyph glyph-name="Igrave" unicode="&#xcc;" horiz-adv-x="385" 
d="M311 475l0.000976562 -103.998h-163l-16 -3l-11 -1c-18 -4 -27 -16 -27 -36c0 -18 6.66699 -33.333 20 -46l13 -12l10 -4l45 14l4 -1l5 1h8l7 1h15l4 -1h5l9 -1h7l24 -42h-9l-10 2h-6l-6 1h-28c-6.66699 0 -13.667 -1.33301 -21 -4l-28 -9
c-8.66699 -4.66699 -16.334 -12.334 -23.001 -23.001s-10 -22.667 -10 -36c0 -18.667 3.33301 -33.667 10 -45c3.33301 -9.33301 11.333 -18 24 -26l28 -11l35 -4l17 1l11 3l-2 4v19c0 10.667 0.666992 17.667 2 21l7 17c4.66699 6.66699 10.5 11.834 17.5 15.501
s15.167 5.5 24.5 5.5c22 0 36 -10.333 42 -31l3 -20l-3 -20l-9 -17c-4.66699 -5.33301 -9.33398 -9.33301 -14.001 -12l-17 -4l52 -90l-44 -24l-45 102l-4 -3l-9 -1l-14 -2h-15c-40 0 -72 7 -96 21c-17.333 10 -30.666 23.333 -39.999 40s-14 37.667 -14 63
c0 9.33301 0.666992 15.333 2 18l7 20l16 24l6 10l-19 13l-13 10c-21.333 21.333 -32 42.333 -32 63c0 27.333 7 46.666 21 57.999c8 5.33301 19.333 10.666 34 15.999l29 4l133 1v65h-260v41h391v-41h-80z" />
    <glyph glyph-name="Iacute" unicode="&#xcd;" horiz-adv-x="480" 
d="M381 475l0.000976562 -104h-211c-31.333 0 -47 -18 -47 -54c0 -28 16.333 -52 49 -72c30 -18 62 -27 96 -27c29.333 0 56.666 5 81.999 15c8 2 16 6 24 12l17 11l19 16l39 -30l-37 -25l-31 -16v-113h-201c-7.33301 0 -13.666 -1.16699 -18.999 -3.5
s-11.333 -6.83301 -18 -13.5l-11 -17l-3 -20c0 -44 32.667 -74 98 -90c12.667 -2.66699 22.334 -4.16699 29.001 -4.5s13.667 -0.5 21 -0.5c21.333 0 43.666 5 66.999 15l46 21c11.333 4.66699 20 10.334 26 17.001l35 -31l-30 -21l-42 -21c-8 -4 -23 -8 -45 -12
c-11.333 -2 -21.166 -3.66699 -29.499 -5s-16.833 -2 -25.5 -2c-28.667 0 -57 3 -85 9c-45.333 10 -79 33 -101 69c-10 16 -15 35.333 -15 58c0 38 16.333 64.333 49 79c9.33301 3.33301 19.666 5.66602 30.999 6.99902l174 1v65l-23 -5l-16 -1h-20c-54 0 -99 10 -135 30
c-20.667 12 -36.834 27.167 -48.501 45.5s-17.5 38.166 -17.5 59.499c0 30.667 9 53.334 27 68.001s39.667 22 65 22l168 1v67h-332v41h488v-41h-107z" />
    <glyph glyph-name="Icircumflex" unicode="&#xce;" horiz-adv-x="480" 
d="M381 475l0.000976562 -104.001h-211c-34 0 -51 -18 -51 -54c0 -14 3.33301 -27.667 10 -41c13.333 -23.333 40.333 -41 81 -53l58 -7c14.667 0 28.5 1 41.5 3s26.167 5.66699 39.5 11l23 12l16 10l18 17l37 -31l-31 -21l-31 -16v-113h-227
c-12 0 -23.667 -5.66699 -35 -17l-11 -17l-4 -20c0 -31.333 18.333 -57 55 -77c12 -6 30.333 -12 55 -18c8 -2 16 -3.33301 24 -4s17.333 -1 28 -1l41 3l34 9c26.667 7.33301 40 24 40 50c0 6.66699 -1 12.834 -3 18.501s-5.66699 11.834 -11 18.501l-6 4l-9 5l33 32l14 -17
l11 -11c14.667 -14.667 22 -30 22 -46c0 -53.333 -33.667 -86.333 -101 -99c-21.333 -4 -42.333 -6 -63 -6c-56 0 -106.167 12 -150.5 36s-66.5 59 -66.5 105c0 36 16.667 62.333 50 79c10.667 3.33301 21.334 5.66602 32.001 6.99902l199 1v65
c-12.667 -4 -25.334 -7 -38.001 -9l-38 -2c-14.667 0 -26.834 0.333008 -36.501 1s-21.167 3 -34.5 7c-50 13.333 -84 36.666 -102 69.999c-10 18 -15 38.667 -15 62c0 16.667 2.33301 29.667 7 39c6 18.667 22.667 33.334 50 44.001c14 4.66699 27 7 39 7l168 1v67h-332v41
h488v-41h-107z" />
    <glyph glyph-name="Idieresis" unicode="&#xcf;" horiz-adv-x="527" 
d="M445 475v-114.001h-224l-8 -3l-2 -5l1 -6l2 -4l12 -15l20 -20l14 -12l15 -8l17 -4l19 -1l17 1l22 3l45 7l25 2c22 2 39.333 -3.66699 52 -17c4 -4.66699 7 -11.667 9 -21l3 -27c0 -36.667 -19.333 -67 -58 -91l-51 -20c-18 -4 -37 -6 -57 -6h-28l-13 2l-37 8l-14 4l-15 6
l15 -25l13 -17c7.33301 -10 17.666 -20.667 30.999 -32c7.33301 -4.66699 16.333 -8 27 -10l21 1l79 16l29 4c8.66699 0 16 -1.66699 22 -5c12.667 -2 24.334 -12.333 35.001 -31l5 -22c0 -18.667 -4.66699 -36.334 -14 -53.001c-20 -37.333 -60 -60.333 -120 -69l-34 -2
c-33.333 0 -68 5.33301 -104 16s-67.667 26.334 -95 47.001l-36 27l-42 36l31 36l40 -36l34 -23c61.333 -40 118.666 -60 171.999 -60c18.667 0 38.834 4.16699 60.501 12.5s37.5 19.5 47.5 33.5c4.66699 7.33301 8 17 10 29c-0.666992 7.33301 -2.66699 13 -6 17l-9 4
l-13 2l-18 -4l-80 -16l-25 -1c-24 0 -50.333 12.833 -79 38.5s-43 53.834 -43 84.501v4l1 6v4l2 5l-32 20l-50 35l-16 12l-16 11l-15 12l29 42l42 -38l34 -26c24.667 -18 55 -34 91 -48c30 -10.667 56.333 -16 79 -16h16c10.667 1.33301 23.667 4.66602 39 9.99902l17 8
c32 14 48 33.333 48 58c0 8 -3 14 -9 18l-11 3l-14 1l-21 -2l-31 -7l-34 -7l-27 -2c-16.667 0 -42 14 -76 42c-15.333 12.667 -29 26.334 -41 41.001c-8 13.333 -12 25.333 -12 36l3 20c2 6 5.66699 10.667 11 14l16 8l19 3l186 1v75h-393v41h525v-41h-80z" />
    <glyph glyph-name="Ntilde" unicode="&#xd1;" horiz-adv-x="637" 
d="M357 475l-0.00195312 -150.999l18 17l12 10c20.667 16.667 44 25 70 25c37.333 0 70 -12.667 98 -38c26 -23.333 39 -53.666 39 -90.999c0 -38 -17.333 -78.667 -52 -122l-22 -27l-30 -33l-43 33c4.66699 1.33301 10 5 16 11c28 28 49.667 59.333 65 94
c7.33301 18.667 11 34.667 11 48c0 18.667 -3.33301 35 -10 49c-12 23.333 -34 35 -66 35c-27.333 0 -52.666 -14.667 -75.999 -44c-7.33301 -10 -14.666 -23 -21.999 -39c-5.33301 -14.667 -8 -27.334 -8 -38.001v-214h-52v148c-24.667 -24.667 -55.667 -37 -93 -37
s-70.666 13.167 -99.999 39.5s-44 59.166 -44 98.499c0 40 13.667 72.333 41 97c20 18 43.333 30 70 36l27 3l27 -3c13.333 -2 22.333 -4.66699 27 -8v-42l-24 8l-22 3c-24.667 0 -46 -8.66699 -64 -26c-4.66699 -4.66699 -11.334 -14.667 -20.001 -30
c-4.66699 -14 -7 -26 -7 -36c0 -28 8.33301 -51.667 25 -71c7.33301 -9.33301 17 -17 29 -23c6 -2.66699 11.333 -4.66699 16 -6s10.667 -2 18 -2c24 0 48.333 12.333 73 37c14 14 21 27.333 21 40v249h-305v41h635v-41h-278zM402.998 -198.999l-14.001 -7
c-30.667 -11.333 -58 -17 -82 -17c-19.333 0 -35.333 2.66699 -48 8c-32.667 8.66699 -58 29 -76 61c-7.33301 13.333 -11 29 -11 47c0 46 20.667 79.333 62 100c8 2 15 3.66699 21 5s12.667 2 20 2h82v-39h-68c-16 0 -30.667 -6 -44 -18
c-5.33301 -6 -10.666 -13.333 -15.999 -22l-4 -25c0 -12 2.33301 -22.333 7 -31c4 -11.333 15.333 -22.333 34 -33c13.333 -7.33301 30 -11 50 -11c30.667 0 57 9.66699 79 29l25 -39z" />
    <glyph glyph-name="Ograve" unicode="&#xd2;" horiz-adv-x="494" 
d="M201 250l0.000976562 -90.998l-1 -6l-8 -7l-10 -2c-6 0 -14.667 4.33301 -26 13c-16 11.333 -30.667 24.666 -44 39.999l-38 45c-6.66699 10 -11 19 -13 27l3 8l8 8l9 5l7 2l60 1v140c0 12 -4.33301 22.333 -13 31s-19.334 13 -32.001 13c-6 0 -12.667 -1.33301 -20 -4
l-17 -9l-11 -16l-4 -21l1 -14l5 -15l2 -7l5 -9l-50 1l-4 7l-1 6l-4 14l-1 13c0 29.333 9.83301 52.166 29.5 68.499s43.5 24.5 71.5 24.5c44 0 73.667 -17 89 -51c4.66699 -14 7 -26.333 7 -37v-135h157v182h-98v41h248v-41h-97v-475h-53v250h-157z" />
    <glyph glyph-name="Oacute" unicode="&#xd3;" 
d="M422 475v-475h-53v127c-2 -3.33301 -4.66699 -6 -8 -8l-17 -11c-36.667 -23.333 -74 -35 -112 -35c-49.333 0 -88.666 17.667 -117.999 53c-34 39.333 -51 79 -51 119l23 -6l29 -2l36 3c14.667 0 28.667 6 42 18s20 26 20 42c0 20 -10.667 35.333 -32 46l-35 10l-42 4
l-46 -3l-51 -9c-8 -1.33301 -17 -3.33301 -27 -6s-21 -6 -33 -10c-16.667 -4 -29.334 -8.33301 -38.001 -13l-1 46c16 2 27.667 4.66699 35 8l27 7l71 12c14 2 24.333 3.33301 31 4s17.667 1 33 1c30.667 0 51.334 -1.66699 62.001 -5c40.667 -5.33301 68.667 -20 84 -44
c8.66699 -14 13 -28.667 13 -44c0 -37.333 -14.333 -64.333 -43 -81l-42 -16c-17.333 -2.66699 -29.833 -4.16699 -37.5 -4.5s-13.834 -0.5 -18.501 -0.5c17.333 -61.333 55.666 -92 114.999 -92c14 0 29.833 3.33301 47.5 10s32.834 15.667 45.501 27l17 15l21 23v290h-369
v41h492v-41h-70z" />
    <glyph glyph-name="Ocircumflex" unicode="&#xd4;" horiz-adv-x="527" 
d="M445 475l-0.000976562 -90.002h-224l-7 -3l-2 -3l1 -5l6 -7l9 -10l14 -12l19 -13l14 -9l12 -5l12 -1l18 1l21 3l52 9l27 3l28 -3c26 -7.33301 39 -27.333 39 -60c0 -29.333 -11 -53 -33 -71l-14 -11l-19 -11v-101h-221c-7.33301 0 -13.666 -1.33301 -18.999 -4l-17 -9
l-11 -14l-4 -17c0 -41.333 20.667 -69.333 62 -84l25 -9l37 -9c0 8 -0.666992 13.667 -2 17l-1 15c0 12.667 2 23.834 6 33.501s11 18.167 21 25.5c16.667 11.333 38.334 17 65.001 17c17.333 0 30.333 -1.33301 39 -4c10 -2 20.667 -6.33301 32 -13
c17.333 -8 27.666 -24 30.999 -48c0 -32 -14.667 -55 -44 -69c-26 -11.333 -57 -17 -93 -17c-71.333 0 -126.666 13 -165.999 39c-41.333 28 -62 65.333 -62 112c0 31.333 17.333 53.333 52 66c10 4 20.667 6 32 6l187 1v47l-6 -2l-14 -1l-16 -1h-11l-36 1
c-12 0 -23 1.66699 -33 5l-34 9l-35 16l-46 23c-13.333 6 -22.666 11.667 -27.999 17l-37 26l-32 31l29 38l40 -38l34 -25c57.333 -42 114.666 -63 171.999 -63c14 0 26 1.33301 36 4c14.667 2 26.667 6.33301 36 13c32 11.333 48 31 48 59c0 8 -3 14 -9 18l-11 3l-14 1
l-21 -2l-31 -7l-34 -7l-27 -2c-12.667 0 -30.667 6 -54 18l-23 15c-4 2.66699 -9.33301 6.66699 -16 12c-8.66699 7.33301 -16.334 15 -23.001 23c-8.66699 13.333 -13 25.333 -13 36l3 19c2 4.66699 5.33301 9.33398 10 14.001l16 7l20 3l186 1v53h-393v41h525v-41h-80z
M409.999 -23.002l-9.99902 4.00098c-4.66699 0 -12 -2 -22 -6l-31 -19l-14 -10l-19 -16h5l8 -1h5l5 -1h10c12 0 20.333 0.666992 25 2c9.33301 0 15.666 1.33301 18.999 4c15.333 5.33301 23 15.666 23 30.999c0 5.33301 -1.33301 9.33301 -4 12z" />
    <glyph glyph-name="Odieresis" unicode="&#xd6;" horiz-adv-x="371" 
d="M457 198l-7 -0.000976562l-8 -1h-6l-14 -2h-28c-6 0 -10 0.666992 -12 2l-6 1l-6 2l-7 2l-6 4v-28c0 -33.333 -13 -61.666 -39 -84.999c-16.667 -14.667 -32.5 -25.5 -47.5 -32.5s-29.5 -10.5 -43.5 -10.5l46 -29l53 -23l-31 -39l-78 48l-18 13l-16 13l-9 9l-24 1h-34
c-19.333 0 -34.666 7.66699 -45.999 23c-2.66699 5.33301 -5 14.333 -7 27l3 15l9 15l13 9l16 4l15 -1c4 0 9 -2 15 -6l14 -8l15 -11l10 -11l13 -16l34 7c12.667 2 21 4.66699 25 8c40 18 60 47 60 87c0 8.66699 -0.666992 13.667 -2 15l-6 10l-9 6l-12 2l-17 -2l-46 -12
l-14 -2l-22 3c-6.66699 2 -14 5.16699 -22 9.5s-15.667 9.83301 -23 16.5l-22 23c-29.333 30.667 -44 60.334 -44 89.001c0 15.333 7 28 21 38l14 5l18 2l149 1v86h-268v41h375v-41h-55v-127h-191l-7 -5l-2 -5l1 -10l5 -11l10 -17l18 -22l12 -13l13 -8l13 -4l17 -1l16 1
c10.667 0 19.667 1.33301 27 4l26 4l17 2c11.333 0 21.666 -3 30.999 -9l16 -11l10 -4l26 -8l25 -2l28 3c6.66699 1.33301 15 4.66602 25 9.99902l4 2l5 5v-50z" />
    <glyph glyph-name="Oslash" unicode="&#xd8;" horiz-adv-x="637" 
d="M357 475l-0.000976562 -151.001l18 17l12 10c20.667 16.667 44 25 70 25c37.333 0 70 -12.667 98 -38c26 -23.333 39 -53.666 39 -90.999c0 -38 -17.333 -78.667 -52 -122l-22 -27l-30 -33l-43 33c4.66699 1.33301 10 5 16 11c28 28 49.667 59.333 65 94
c7.33301 18.667 11 34.667 11 48c0 18.667 -3.33301 35 -10 49c-12 23.333 -34 35 -66 35c-27.333 0 -52.666 -14.667 -75.999 -44c-7.33301 -10 -14.666 -23 -21.999 -39c-5.33301 -14.667 -8 -27.334 -8 -38.001v-214h-52v162l-237 -158l-29 39l145 86l-34 9
c-10.667 2 -18.667 5.66699 -24 11c-38.667 22.667 -58 56 -58 100c0 37.333 14 69 42 95c20.667 18.667 44.334 31 71.001 37l28 3l26 -3c7.33301 0 15.666 -2.33301 24.999 -7v-42l-24 8l-22 3c-24.667 0 -46 -8.66699 -64 -26
c-4.66699 -4.66699 -11.334 -14.667 -20.001 -30c-4.66699 -14 -7 -26 -7 -36c0 -36.667 18.667 -64.667 56 -84c10.667 -3.33301 21.334 -5.66602 32.001 -6.99902c9.33301 0 15.666 0.666992 18.999 2l20 9l55 38v266h-305v41h655v-41h-298z" />
    <glyph glyph-name="Ugrave" unicode="&#xd9;" horiz-adv-x="348" 
d="M0 475v41h393v-41h-393zM258 328c-22 0 -43.167 -8.16797 -63.5 -24.501s-30.5 -37.833 -30.5 -64.5c0 -37.333 21 -80.666 63 -129.999l26 -30l38 -37l-31 -38l-42 44l-30 36c-48.667 58.667 -73 110.334 -73 155.001c0 19.333 4.33301 35.666 13 48.999l9 14l25 25
l-141 1v39h418v-39h-181z" />
    <glyph glyph-name="Uacute" unicode="&#xda;" horiz-adv-x="252" 
d="M0 475v41h254v-41h-254zM258 243l-10 -4l-27 -8l-24 -2l-40 3c-10.667 0 -24.667 3.33301 -42 10l-49 16l-33 18v42c4 -4 12 -9 24 -15l46 -15l43 -9l40 -3l29 3l31 9l11 5l14 7v-50z" />
    <glyph glyph-name="Ucircumflex" unicode="&#xdb;" horiz-adv-x="287" 
d="M206 156c-14 -4.66699 -27.999 -7.00098 -41.999 -7.00098c-32.667 0 -57.667 10 -75 30c-4.66699 4.66699 -11.334 15.667 -20.001 33c-4 12 -6 25.667 -6 41c0 30.667 9.16699 55.834 27.5 75.501s42.833 29.5 73.5 29.5c12 0 20.5 -0.333008 25.5 -1
s10.833 -3 17.5 -7c17.333 -6 31.333 -18.667 42 -38s16 -38.666 16 -57.999s-5.16699 -38.833 -15.5 -58.5s-24.833 -32.834 -43.5 -39.501z" />
    <glyph glyph-name="Udieresis" unicode="&#xdc;" horiz-adv-x="371" 
d="M291 264l-20.998 8l-33 17l-14 9l-73 -50l-20 -15l-29 -19l-33 -20l-31 40l96 57l47 32l-21 14l-13 13c-23.333 23.333 -35 49 -35 77c0 27.333 10.167 49.5 30.5 66.5s44.166 25.5 71.499 25.5c26 0 50.333 -8.33301 73 -25c15.333 -12 25.666 -28 30.999 -48l1 -19
c0 -8.66699 -0.666992 -14.667 -2 -18l-5 -17c-2 -6.66699 -5.33301 -12.667 -10 -18l-12 -18l-12 -14l-17 -15l9 -6l9 -5l8 -5l9 -4l31 -17c6 -1.33301 13.333 -5 22 -11l113 -55v-48zM262.002 446c-2 6 -6.33301 12.333 -13 19l-19 12l-21 4
c-12.667 0 -24.667 -4.66699 -36 -14l-11 -17l-4 -23c0 -18.667 5.66699 -33.667 17 -45c13.333 -17.333 27.333 -27 42 -29l14 10l10 9c16.667 14.667 25 31.667 25 51c0 9.33301 -1.33301 17 -4 23z" />
    <glyph glyph-name="Yacute" unicode="&#xdd;" horiz-adv-x="625" 
d="M352 475v-149.001l10 9l21 15c20.667 14.667 40.667 22 60 22c25.333 0 49.5 -6.66699 72.5 -20s39.833 -32 50.5 -56c6.66699 -18 10 -34.333 10 -49c0 -40.667 -16.333 -83.667 -49 -129l-18 -20l-34 -35l-43 35l26 19l19 18c30.667 34.667 46 73.334 46 116.001
c0 20.667 -6 39 -18 55c-14.667 16.667 -34.667 25 -60 25c-12 0 -23 -3.66699 -33 -11c-14 -8.66699 -25.333 -20 -34 -34l-12 -19l-14 -26v-241h-53v199l-213 -166l-37 35l154 104l-8 -2h-7l-22 1l-19 5l-25 12l-22 18l-13 17l-9 20l-5 23l-1 26v183h-72v41h631v-41h-279z
M299 474.999l-176 -0.000976562v-190c0 -30 7.66699 -52.667 23 -68c3.33301 -3.33301 10.333 -7.66602 21 -12.999l32 -4c28 0 51.667 9.33301 71 28c15.333 15.333 25 32 29 50v197z" />
    <glyph glyph-name="Thorn" unicode="&#xde;" horiz-adv-x="264" 
d="M193 447h-43l41 143h61zM94 449h-43l43 143h58z" />
    <glyph glyph-name="germandbls" unicode="&#xdf;" horiz-adv-x="275" 
d="M209 453h-59l59 143h43zM111 455h-60l58 143h43z" />
    <glyph glyph-name="agrave" unicode="&#xe0;" horiz-adv-x="445" 
d="M319 136l0.00195312 -57.999l-5 -10l-8 -2c-0.666992 0 -1.83398 0.333008 -3.50098 1s-4.83398 3 -9.50098 7l-22 24l-20 26l-7 15l1 8l4 6l6 3l11 3l165 1l1 59h-203c-16 0 -29 -2.66699 -39 -8c-7.33301 -2 -18 -9 -32 -21c-19.333 -16 -29 -38.667 -29 -68
c0 -44 38.667 -76 116 -96l33 -4l25 -4l58 -7l-17 -36l-22 -1c-5.33301 0 -15 1 -29 3s-31.333 5 -52 9s-34.667 7.66699 -42 11c-50 14 -86 37.333 -108 70c-11.333 17.333 -17 37.666 -17 60.999c0 16 5.33301 32.667 16 50c5.33301 8.66699 11.666 16.667 18.999 24
l24 24l-21 22l-13 17c-12.667 16.667 -21.667 31 -27 43l-8 37l3 18l11 14l15 8l18 3l211 1v86h-322v41h445v-41h-70v-129h-238c-6 0 -10.667 -1.66699 -14 -5l-4 -10l4 -16c4.66699 -9.33301 9.33398 -16.333 14.001 -21l8 -13l12 -14l2 -4l5 -4l289 -1l2 -258h-23l-1 136
h-112z" />
    <glyph glyph-name="aacute" unicode="&#xe1;" horiz-adv-x="672" 
d="M598 475l-0.000976562 -474.999h-53v113c-44.667 -46.667 -97 -70 -157 -70c-61.333 0 -110 26.333 -146 79h5l4 -1h10c33.333 0 56 10.333 68 31c4.66699 9.33301 7 19 7 29c0 10.667 -1.16699 19.167 -3.5 25.5s-7.16602 11.166 -14.499 14.499l-4 1l-4 2h-5l-6 2
l-119 1c-4 0 -10.667 -3 -20 -9l-20 -21c-6 -9.33301 -11 -19.666 -15 -30.999l-4 -36c0 -28.667 16.667 -55.667 50 -81l41 -28l59 -29l36 -10l-37 -35c-10 -4 -44.333 12 -103 48c-30.667 18.667 -55 40 -73 64c-8.66699 11.333 -15.167 22.833 -19.5 34.5
s-6.5 23.167 -6.5 34.5l3 38c0 11.333 3.66699 20.666 11 27.999l13 15l26 26l-17 19l-11 16c-19.333 28.667 -29 53.667 -29 75l3 18l11 14l15 8l18 3l211 1v86h-322v41h670v-41h-72zM544.999 475.001h-170v-129h-238c-6 0 -11 -2 -15 -6l-4 -12l3 -17
c2 -6.66699 5.66699 -13.334 11 -20.001l14 -17l12 -9l166 1l19 -9c6 -2 10.333 -4.66699 13 -8c22 -16 33 -36.667 33 -62c0 -27.333 -7.66699 -48.666 -23 -63.999l-10 -10l-14 -10l16 -8l16 -6l15 -5l11 -1c8.66699 0 17.5 1 26.5 3s18.5 5.33301 28.5 10
c22 10 39.333 22.667 52 38l17 21l21 30v290z" />
    <glyph glyph-name="acircumflex" unicode="&#xe2;" horiz-adv-x="480" 
d="M418 475l0.00195312 -128.999h-281c-10 0 -16.333 -5.66699 -19 -17c0 -8.66699 1.66699 -15.667 5 -21l15 -25l20 -22l16 -10l13 4l27 7l32 6l27 2c10.667 0 21.5 -0.333008 32.5 -1s23.167 -2.33398 36.5 -5.00098c43.333 -8 73 -24 89 -48c8 -12 12 -27.667 12 -47
c0 -22.667 -11.667 -38.334 -35 -47.001l-23 -5l-45 -7c-14 0 -23.333 -0.666992 -28 -2c-29.333 0 -44 -13.667 -44 -41c0 -18 9 -30.667 27 -38l28 -9l31 -3l30 3c6.66699 0 17.334 3.66699 32.001 11l6 2l8 5l21 -42l-45 -14c-10 -2 -17.667 -3.33301 -23 -4
s-14.333 -1 -27 -1c-41.333 0 -73 7 -95 21c-29.333 14 -44 38.333 -44 73c0 30.667 9.66699 52.334 29 65.001c8.66699 6.66699 19.167 11.834 31.5 15.501s27.166 5.5 44.499 5.5h24l17 1h14l11 3l6 6l2 12c0 10 -3.33301 18.167 -10 24.5s-17.334 12.166 -32.001 17.499
l-35 6l-46 2c-14 0 -24.333 -0.333008 -31 -1s-17 -3 -31 -7c-36 -10.667 -63 -30.667 -81 -60c-7.33301 -12.667 -11 -27.667 -11 -45s4 -37 12 -59c4 -15.333 13.333 -31.333 28 -48c22 -25.333 39.667 -44 53 -56c13.333 -10.667 26.666 -17 39.999 -19l-35 -39
c-25.333 4 -59.666 34.667 -102.999 92c-12 17.333 -23.667 38.333 -35 63c-7.33301 20 -11 42 -11 66c0 26 5.66699 46.667 17 62l17 23l27 27l-19 21l-13 17l-25 43c-2.66699 7.33301 -5.33398 19.333 -8.00098 36l3 18l11 14l15 8l18 3l254 1v86h-365v41h488v-41h-70z
" />
    <glyph glyph-name="atilde" unicode="&#xe3;" horiz-adv-x="686" 
d="M615 475l0.000976562 -474.998h-52v100h-163v-55l-1 -11l-2 -6l-8 -6l-10 -2c-12 0 -31 13.333 -57 40c-23.333 22 -37 41.333 -41 58l1 8l5 6l8 3l12 3l39 1v84h-143c-31.333 0 -54 -19.333 -68 -58l-4 -35c0 -21.333 9.66699 -43 29 -65c14 -16 33 -30.667 57 -44
l55 -29l35 -10l-37 -35c-16.667 0 -48.5 16.167 -95.5 48.5s-76.5 65.166 -88.5 98.499c-4 11.333 -6 22.666 -6 33.999l3 32c2.66699 16.667 10.667 32 24 46l22 23l-19 21l-13 17l-25 42c-2.66699 7.33301 -5.33398 19.333 -8.00098 36l3 18l11 14l15 8l18 3l211 1v86
h-322v41h688v-41h-73zM563.001 475.002h-187.999v-129h-238c-8.66699 0 -14.334 -5.66699 -17.001 -17c0 -14 5.66699 -27.667 17 -41l16 -18l13 -5l234 1v-127h163v336z" />
    <glyph glyph-name="adieresis" unicode="&#xe4;" horiz-adv-x="709" 
d="M434 475l-0.000976562 -118.001l37 16c14 4 28.667 6 44 6c40 0 75.833 -12.167 107.5 -36.5s47.5 -56.166 47.5 -95.499c0 -25.333 -9.33301 -57 -28 -95l-23 -41l-22 -32l-29 -41l-43 30l5 4l11 13l30 47c29.333 46.667 44 86.334 44 119.001c0 24 -8 44 -24 60
s-36 24 -60 24c-22 0 -37.333 -1.66699 -46 -5c-12 -2 -23 -6 -33 -12l-14 -11l-4 -9v-298h-51v324h-125c-39.333 0 -68.333 -17.333 -87 -52c-3.33301 -10.667 -5.66602 -21.667 -6.99902 -33c0 -40 17 -85 51 -135l21 -31l30 -41l-43 -26l-32 44l-22 35
c-8.66699 14 -16 27.167 -22 39.5s-12.333 27.166 -19 44.499c-8.66699 26 -13 49.333 -13 70c0 22.667 7.33301 42.667 22 60l18 17l7 7l-141 1v43h362v108h-383v41h713v-41h-279z" />
    <glyph glyph-name="aring" unicode="&#xe5;" horiz-adv-x="438" 
d="M371 114c-29.333 -31.333 -67.668 -47 -115.001 -47c-44 0 -85.333 15.167 -124 45.5s-58 68.833 -58 115.5c0 34 9.33301 65 28 93s44.334 49 77.001 63c8.66699 3.33301 19 6.33301 31 9s22.667 4 32 4c46 0 86.5 -16.167 121.5 -48.5s52.5 -72.5 52.5 -120.5
c0 -44 -15 -82 -45 -114zM340.998 323c-18.667 18.667 -43 27.998 -73 27.998c-38 0 -71.333 -15.333 -100 -46s-43 -67 -43 -109c0 -12 3 -24 9 -36c4 -8.66699 11.667 -18 23 -28l34 -20c12 -4 25 -6 39 -6c26.667 0 51.667 9.33301 75 28c22 16 39 37.333 51 64
c5.33301 12 8.83301 22.333 10.5 31s2.5 17.334 2.5 26.001c0 26.667 -9.33301 49.334 -28 68.001z" />
    <glyph glyph-name="ae" unicode="&#xe6;" 
d="M383 475l0.00195312 -127h-195c-44.667 0 -67 -27 -67 -81c0 -52 29.333 -90 88 -114c18 -5.33301 36.333 -8 55 -8l10 1l15 2l18 3l-1 9c0 6 1.66699 12 5 18c10 36.667 28 55 54 55c21.333 0 35.333 -9.66699 42 -29l3 -18c0 -16.667 -4.66699 -32 -14 -46
c-4.66699 -8 -11 -14.333 -19 -19l-22 -5l2 -13l7 -35l7 -22l12 -29l17 -27l10 -14l10 -11h-59l-18 41l-12 29c-0.666992 2.66699 -2.83398 9.16699 -6.50098 19.5s-5.83398 16.833 -6.50098 19.5l-4 36l-207 -151l-31 43l184 109c-18 0 -43 3 -75 9
c-6.66699 0 -13.667 2.33301 -21 7c-64 24 -96 70.667 -96 140c0 33.333 9.16699 61.5 27.5 84.5s42.5 34.5 72.5 34.5l162 1v88h-330v41h490v-41h-107z" />
    <glyph glyph-name="ccedilla" unicode="&#xe7;" horiz-adv-x="445" 
d="M377 475v-474.999h-53v217l-250 -217l-39 35l168 133c-38 0 -67.667 12.667 -89 38c-10.667 12 -19.667 27 -27 45c-6 17.333 -9 35.666 -9 54.999v169h-78v41h445v-41h-68zM322 475.001l-193 0.000976562v-176c0 -38 18.667 -67.333 56 -88l30 -5c12 0 23 2.66699 33 8
c18.667 9.33301 31.667 17.666 39 24.999l15 13l20 20v203z" />
    <glyph glyph-name="egrave" unicode="&#xe8;" horiz-adv-x="264" 
d="M248 475v41h20v-41h-20zM341 158l-35.9961 -25.002c-38.667 -26.667 -82.334 -40 -131.001 -40c-31.333 0 -60.666 10.167 -87.999 30.5s-41 45.833 -41 76.5c0 22 8.33301 43.667 25 65l10 10l16 13c-10.667 4.66699 -20.667 12.334 -30 23.001
c-20.667 21.333 -34.667 39.666 -42 54.999l-8 20c-2.66699 6.66699 -4.66699 12.834 -6 18.501s-2 11.834 -2 18.501c0 30 9.33301 54.333 28 73s43 28 73 28c41.333 0 69.666 -16 84.999 -48c3.33301 -8.66699 5.66602 -18.667 6.99902 -30v-30h-45v31
c0 26.667 -15 40 -45 40c-14 0 -26.333 -6.33301 -37 -19l-10 -20l-3 -23c0 -15.333 1.66699 -28 5 -38c1.33301 -4.66699 3.16602 -9.33398 5.49902 -14.001s6.16602 -10.667 11.499 -18c10 -14 19.333 -25.333 28 -34c4 -3.33301 8.5 -5.83301 13.5 -7.5l10.5 -3.5l34 10
l39 4l18 -1l20 -2l22 -38l-67 -3c-19.333 0 -32.333 -1.66699 -39 -5c-41.333 -9.33301 -62 -33.666 -62 -72.999c0 -28.667 17.667 -50 53 -64l31 -4c40 0 81 15.667 123 47l22 20l26 28v-53c0 -5.33301 -4.66699 -11.333 -14 -18z" />
    <glyph glyph-name="eacute" unicode="&#xe9;" horiz-adv-x="504" 
d="M434 477v-476.998h-53v223l-186 -100l30 -51l1 -9l1 -5c0 -8 -2 -13 -6 -15l-8 -2l-10 -1l-14 1c-7.33301 0 -13.333 1.33301 -18 4l-23 6l-27 12l-18 9l-13 11l-7 10l-2 11c0 11.333 7 22.666 21 33.999l4 3l7 4l242 103l-18 20l-14 16
c-11.333 13.333 -23.333 24.666 -36 33.999c-11.333 10.667 -21 17.667 -29 21l-15 6l-16 4l-18 2l-16 1l-24 -1l-22 -3l-9 -2l-11 -3l4 -72l-3 -11l-3 -6l-7 -6l-8 -2l-10 2l-13 8l-15 13l-17 18l-28 36l-6 10l-2 10c0 8 4.66699 15.667 14 23l43 17l59 10l64 4
c15.333 0 27.5 -0.333008 36.5 -1s18 -3 27 -7s18.167 -10.667 27.5 -20c16 -12.667 30.333 -27 43 -43l20 -24l28 -32v205h-381v41h506v-39h-72z" />
    <glyph glyph-name="ecircumflex" unicode="&#xea;" horiz-adv-x="480" 
d="M381 475l0.000976562 -104h-211c-31.333 0 -47 -18 -47 -54c0 -28 16.333 -52 49 -72c30 -18 62 -27 96 -27c29.333 0 56.666 5 81.999 15c8 2 16 6 24 12l17 11l19 16l39 -30l-37 -25l-31 -16v-113h-201c-7.33301 0 -13.666 -1.16699 -18.999 -3.5
s-11.333 -6.83301 -18 -13.5l-11 -17l-3 -20c0 -44 32.667 -74 98 -90c12.667 -2.66699 22.334 -4.16699 29.001 -4.5s13.667 -0.5 21 -0.5c21.333 0 43.666 5 66.999 15l46 21c11.333 4.66699 20 10.334 26 17.001l35 -31l-30 -21l-42 -21c-8 -4 -23 -8 -45 -12
c-11.333 -2 -21.166 -3.66699 -29.499 -5s-16.833 -2 -25.5 -2c-28.667 0 -57 3 -85 9c-45.333 10 -79 33 -101 69c-10 16 -15 35.333 -15 58c0 38 16.333 64.333 49 79c9.33301 3.33301 19.666 5.66602 30.999 6.99902l174 1v65l-23 -5l-16 -1h-20c-54 0 -99 10 -135 30
c-20.667 12 -36.834 27.167 -48.501 45.5s-17.5 38.166 -17.5 59.499c0 30.667 9 53.334 27 68.001s39.667 22 65 22l168 1v67h-332v41h488v-41h-107z" />
    <glyph glyph-name="edieresis" unicode="&#xeb;" horiz-adv-x="480" 
d="M381 475l0.000976562 -104.001h-211c-34 0 -51 -18 -51 -54c0 -14 3.33301 -27.667 10 -41c13.333 -23.333 40.333 -41 81 -53l58 -7c14.667 0 28.5 1 41.5 3s26.167 5.66699 39.5 11l23 12l16 10l18 17l37 -31l-31 -21l-31 -16v-113h-227
c-12 0 -23.667 -5.66699 -35 -17l-11 -17l-4 -20c0 -31.333 18.333 -57 55 -77c12 -6 30.333 -12 55 -18c8 -2 16 -3.33301 24 -4s17.333 -1 28 -1l41 3l34 9c26.667 7.33301 40 24 40 50c0 6.66699 -1 12.834 -3 18.501s-5.66699 11.834 -11 18.501l-6 4l-9 5l33 32l14 -17
l11 -11c14.667 -14.667 22 -30 22 -46c0 -53.333 -33.667 -86.333 -101 -99c-21.333 -4 -42.333 -6 -63 -6c-56 0 -106.167 12 -150.5 36s-66.5 59 -66.5 105c0 36 16.667 62.333 50 79c10.667 3.33301 21.334 5.66602 32.001 6.99902l199 1v65
c-12.667 -4 -25.334 -7 -38.001 -9l-38 -2c-14.667 0 -26.834 0.333008 -36.501 1s-21.167 3 -34.5 7c-50 13.333 -84 36.666 -102 69.999c-10 18 -15 38.667 -15 62c0 16.667 2.33301 29.667 7 39c6 18.667 22.667 33.334 50 44.001c14 4.66699 27 7 39 7l168 1v67h-332v41
h488v-41h-107z" />
    <glyph glyph-name="igrave" unicode="&#xec;" horiz-adv-x="527" 
d="M445 475v-114.001h-224l-8 -3l-2 -5l1 -6l2 -4l12 -15l20 -20l14 -12l15 -8l17 -4l19 -1l17 1l22 3l45 7l25 2c22 2 39.333 -3.66699 52 -17c4 -4.66699 7 -11.667 9 -21l3 -27c0 -36.667 -19.333 -67 -58 -91l-51 -20c-18 -4 -37 -6 -57 -6h-28l-13 2l-37 8l-14 4l-15 6
l15 -25l13 -17c7.33301 -10 17.666 -20.667 30.999 -32c7.33301 -4.66699 16.333 -8 27 -10l21 1l79 16l29 4c8.66699 0 16 -1.66699 22 -5c12.667 -2 24.334 -12.333 35.001 -31l5 -22c0 -18.667 -4.66699 -36.334 -14 -53.001c-20 -37.333 -60 -60.333 -120 -69l-34 -2
c-33.333 0 -68 5.33301 -104 16s-67.667 26.334 -95 47.001l-36 27l-42 36l31 36l40 -36l34 -23c61.333 -40 118.666 -60 171.999 -60c18.667 0 38.834 4.16699 60.501 12.5s37.5 19.5 47.5 33.5c4.66699 7.33301 8 17 10 29c-0.666992 7.33301 -2.66699 13 -6 17l-9 4
l-13 2l-18 -4l-80 -16l-25 -1c-24 0 -50.333 12.833 -79 38.5s-43 53.834 -43 84.501v4l1 6v4l2 5l-32 20l-50 35l-16 12l-16 11l-15 12l29 42l42 -38l34 -26c24.667 -18 55 -34 91 -48c30 -10.667 56.333 -16 79 -16h16c10.667 1.33301 23.667 4.66602 39 9.99902l17 8
c32 14 48 33.333 48 58c0 8 -3 14 -9 18l-11 3l-14 1l-21 -2l-31 -7l-34 -7l-27 -2c-16.667 0 -42 14 -76 42c-15.333 12.667 -29 26.334 -41 41.001c-8 13.333 -12 25.333 -12 36l3 20c2 6 5.66699 10.667 11 14l16 8l19 3l186 1v75h-393v41h525v-41h-80z" />
    <glyph glyph-name="iacute" unicode="&#xed;" horiz-adv-x="385" 
d="M311 475l0.000976562 -103.998h-163l-16 -3l-11 -1c-18 -4 -27 -16 -27 -36c0 -18 6.66699 -33.333 20 -46l13 -12l10 -4l45 14l4 -1l5 1h8l7 1h15l4 -1h5l9 -1h7l24 -42h-9l-10 2h-6l-6 1h-28c-6.66699 0 -13.667 -1.33301 -21 -4l-28 -9
c-8.66699 -4.66699 -16.334 -12.334 -23.001 -23.001s-10 -22.667 -10 -36c0 -18.667 3.33301 -33.667 10 -45c3.33301 -9.33301 11.333 -18 24 -26l28 -11l35 -4l17 1l11 3l-2 4v19c0 10.667 0.666992 17.667 2 21l7 17c4.66699 6.66699 10.5 11.834 17.5 15.501
s15.167 5.5 24.5 5.5c22 0 36 -10.333 42 -31l3 -20l-3 -20l-9 -17c-4.66699 -5.33301 -9.33398 -9.33301 -14.001 -12l-17 -4l52 -90l-44 -24l-45 102l-4 -3l-9 -1l-14 -2h-15c-40 0 -72 7 -96 21c-17.333 10 -30.666 23.333 -39.999 40s-14 37.667 -14 63
c0 9.33301 0.666992 15.333 2 18l7 20l16 24l6 10l-19 13l-13 10c-21.333 21.333 -32 42.333 -32 63c0 27.333 7 46.666 21 57.999c8 5.33301 19.333 10.666 34 15.999l29 4l133 1v65h-260v41h391v-41h-80z" />
    <glyph glyph-name="icircumflex" unicode="&#xee;" 
d="M422 475v-475h-53v127c-2 -3.33301 -4.66699 -6 -8 -8l-17 -11c-36.667 -23.333 -74 -35 -112 -35c-49.333 0 -88.666 17.667 -117.999 53c-34 39.333 -51 79 -51 119l23 -6l29 -2l36 3c14.667 0 28.667 6 42 18s20 26 20 42c0 20 -10.667 35.333 -32 46l-35 10l-42 4
l-46 -3l-51 -9c-8 -1.33301 -17 -3.33301 -27 -6s-21 -6 -33 -10c-16.667 -4 -29.334 -8.33301 -38.001 -13l-1 46c16 2 27.667 4.66699 35 8l27 7l71 12c14 2 24.333 3.33301 31 4s17.667 1 33 1c30.667 0 51.334 -1.66699 62.001 -5c40.667 -5.33301 68.667 -20 84 -44
c8.66699 -14 13 -28.667 13 -44c0 -37.333 -14.333 -64.333 -43 -81l-42 -16c-17.333 -2.66699 -29.833 -4.16699 -37.5 -4.5s-13.834 -0.5 -18.501 -0.5c17.333 -61.333 55.666 -92 114.999 -92c14 0 29.833 3.33301 47.5 10s32.834 15.667 45.501 27l17 15l21 23v290h-369
v41h492v-41h-70z" />
    <glyph glyph-name="idieresis" unicode="&#xef;" horiz-adv-x="527" 
d="M445 475l-0.000976562 -90.002h-224l-7 -3l-2 -3l1 -5l6 -7l9 -10l14 -12l19 -13l14 -9l12 -5l12 -1l18 1l21 3l52 9l27 3l28 -3c26 -7.33301 39 -27.333 39 -60c0 -29.333 -11 -53 -33 -71l-14 -11l-19 -11v-101h-221c-7.33301 0 -13.666 -1.33301 -18.999 -4l-17 -9
l-11 -14l-4 -17c0 -41.333 20.667 -69.333 62 -84l25 -9l37 -9c0 8 -0.666992 13.667 -2 17l-1 15c0 12.667 2 23.834 6 33.501s11 18.167 21 25.5c16.667 11.333 38.334 17 65.001 17c17.333 0 30.333 -1.33301 39 -4c10 -2 20.667 -6.33301 32 -13
c17.333 -8 27.666 -24 30.999 -48c0 -32 -14.667 -55 -44 -69c-26 -11.333 -57 -17 -93 -17c-71.333 0 -126.666 13 -165.999 39c-41.333 28 -62 65.333 -62 112c0 31.333 17.333 53.333 52 66c10 4 20.667 6 32 6l187 1v47l-6 -2l-14 -1l-16 -1h-11l-36 1
c-12 0 -23 1.66699 -33 5l-34 9l-35 16l-46 23c-13.333 6 -22.666 11.667 -27.999 17l-37 26l-32 31l29 38l40 -38l34 -25c57.333 -42 114.666 -63 171.999 -63c14 0 26 1.33301 36 4c14.667 2 26.667 6.33301 36 13c32 11.333 48 31 48 59c0 8 -3 14 -9 18l-11 3l-14 1
l-21 -2l-31 -7l-34 -7l-27 -2c-12.667 0 -30.667 6 -54 18l-23 15c-4 2.66699 -9.33301 6.66699 -16 12c-8.66699 7.33301 -16.334 15 -23.001 23c-8.66699 13.333 -13 25.333 -13 36l3 19c2 4.66699 5.33301 9.33398 10 14.001l16 7l20 3l186 1v53h-393v41h525v-41h-80z
M409.999 -23.002l-9.99902 4.00098c-4.66699 0 -12 -2 -22 -6l-31 -19l-14 -10l-19 -16h5l8 -1h5l5 -1h10c12 0 20.333 0.666992 25 2c9.33301 0 15.666 1.33301 18.999 4c15.333 5.33301 23 15.666 23 30.999c0 5.33301 -1.33301 9.33301 -4 12z" />
    <glyph glyph-name="eth" unicode="&#xf0;" horiz-adv-x="480" 
d="M381 475l0.000976562 -104h-211c-34 0 -51 -18 -51 -54c0 -14 3.33301 -27.667 10 -41c13.333 -23.333 40.333 -41 81 -53l58 -7c38 0 67 23 87 69l8 28l8 41l38 -12v-12c0 -4.66699 -0.666992 -10.334 -2 -17.001l-1 -26c0 -10.667 -1.33301 -18.667 -4 -24l-5 -20
l-3 -3l-3 -6l-4 -9l-3 -12l-2 -5l-1 -8v-112h-227c-12 0 -23.667 -5.66699 -35 -17l-11 -17l-4 -20c0 -31.333 18.333 -57 55 -77c12 -6 30.333 -12 55 -18c8 -2 16 -3.33301 24 -4s17.333 -1 28 -1l41 3l34 9c26.667 7.33301 40 24 40 50c0 6.66699 -1 12.834 -3 18.501
s-5.66699 11.834 -11 18.501l-6 4l-9 5l33 32l14 -17l11 -11c14.667 -14.667 22 -30 22 -46c0 -53.333 -33.667 -86.333 -101 -99c-21.333 -4 -42.333 -6 -63 -6c-56 0 -106.167 12 -150.5 36s-66.5 59 -66.5 105c0 36 16.667 62.333 50 79
c10.667 3.33301 21.334 5.66602 32.001 6.99902l199 1v65c-12.667 -4 -25.334 -7 -38.001 -9l-38 -2c-14.667 0 -26.834 0.333008 -36.501 1s-21.167 3 -34.5 7c-50 13.333 -84 36.666 -102 69.999c-10 18 -15 38.667 -15 62c0 16.667 2.33301 29.667 7 39
c6 18.667 22.667 33.334 50 44.001c14 4.66699 27 7 39 7l168 1v67h-332v41h488v-41h-107z" />
    <glyph glyph-name="ntilde" unicode="&#xf1;" horiz-adv-x="240" 
d="M179 36c-18.667 -16.667 -40.667 -25.001 -66 -25.001c-24 0 -45.5 7.5 -64.5 22.5s-28.5 37.5 -28.5 67.5c0 14.667 2.33301 27 7 37c6.66699 20 23.667 35.667 51 47c10 4 21.667 6 35 6c27.333 0 49.833 -8.16699 67.5 -24.5s26.5 -38.166 26.5 -65.499
c0 -25.333 -9.33301 -47 -28 -65zM134 49.999c6 2 11.334 5.66699 16.001 11l10 17l4 21c0 8.66699 -1.33301 15.667 -4 21l-9 17c-4 5.33301 -9.66699 9.33301 -17 12l-21 4c-14.667 0 -27.334 -5.66699 -38.001 -17l-10 -17l-3 -20l3 -21l10 -17l15 -11l23 -4z" />
    <glyph glyph-name="oacute" unicode="&#xf3;" horiz-adv-x="672" 
d="M600 477v-476.998h-53v197l-143 -131l-39 32l149 121l-3 1l-3 2l-4 1l-3 2c-10 5.33301 -21 9.33301 -33 12l-36 4l-28 -2l-32 -6l-25 -7l-11 -4l-25 46l41 7l44 7l32 2h12l5 -1h6c4.66699 0 7.66699 -0.666992 9 -2l7 -1l-14 25l-10 15
c-25.333 25.333 -59.666 38 -102.999 38l-22 -2c-9.33301 0 -18 -1.33301 -26 -4c-3.33301 -0.666992 -5.33301 -1.33398 -6 -2.00098l-7 -1c0 -30 -8 -56.667 -24 -80c-6 -8.66699 -14.833 -16.334 -26.5 -23.001s-23.834 -10 -36.501 -10l-11 1l-13 2l62 -94l27 -35
l48 -55l21 -21l-41 -34c-12 4 -28 21 -48 51l-122 177l-28 46l-18 31l-18 32l43 28l29 -56c12 -23.333 31.667 -35 59 -35l22 3c6 2 10.333 5.33301 13 10l7 15l2 21l-1 15v137h-225v41h672v-39h-72zM547 475.002h-270v-84l15 1l10 3l27 4l19 2
c56.667 0 102.667 -23 138 -69l16 -29l18 -40l27 -17v229z" />
    <glyph glyph-name="ocircumflex" unicode="&#xf4;" horiz-adv-x="637" 
d="M357 475l-0.00390625 -127.004l24 17l32 15l36 9l36 4c46 0 77 -15.667 93 -47c2.66699 -5.33301 4.66699 -11.166 6 -17.499s2 -13.833 2 -22.5c0 -26.667 -8.66699 -51.667 -26 -75l-15 -15l-37 26l5 3l4 5c6.66699 8.66699 12 17.667 16 27s6 19 6 29
c0 7.33301 -1.66699 14 -5 20c-2 10.667 -12.333 20 -31 28l-21 4c-9.33301 0 -19.833 -2.33301 -31.5 -7s-27.167 -13 -46.5 -25l-21 -13l-26 -19v-101l25 12l14 6l37 13l30 5c37.333 0 65.333 -9.33301 84 -28c20.667 -16.667 31 -41 31 -73
c0 -16.667 -4.16699 -34.167 -12.5 -52.5s-20.166 -33.166 -35.499 -44.499l-20 -15l-28 -16l-27 35l21 12l15 11c24 17.333 36 40.666 36 69.999c0 12.667 -1.66699 22.334 -5 29.001c-3.33301 13.333 -14.666 22.333 -33.999 27l-27 4c-6.66699 0 -17 -2 -31 -6l-37 -18
l-16 -10l-20 -14v-140h-52v102c-3.33301 -4.66699 -8 -8.66699 -14 -12l-31 -16l-43 -18c-14 -4 -26.333 -6 -37 -6c-9.33301 0 -16.666 0.333008 -21.999 1s-13 3 -23 7c-26.667 9.33301 -46.667 28.333 -60 57c-6 13.333 -9 27.333 -9 42c0 11.333 4 25 12 41l9 13l12 12
l12 8l-19 14l-13 18l-8 19l-2 20c0 14 3.33301 27.667 10 41c10.667 24.667 31.334 43.334 62.001 56.001c6.66699 2 14.167 3.83301 22.5 5.5s15.833 2.5 22.5 2.5l23 -2l27 -6l6 -2l8 -3l20 -44l-16 3l-11 3l-30 6l-20 2c-28 0 -50.333 -14.333 -67 -43l-5 -24
c0 -17.333 11.667 -32 35 -44l15 3l16 1l18 -1l52 -6l16 -1l20 -46l-11 2l-27 6l-31 5l-21 2c-14 0 -24.667 -1.66699 -32 -5c-20.667 -3.33301 -35.667 -14 -45 -32c-3.33301 -7.33301 -5.66602 -16.666 -6.99902 -27.999c0 -18 5.66699 -32.333 17 -43
c3.33301 -4.66699 10.333 -9 21 -13l31 -4c25.333 0 51.666 9.66699 78.999 29l28 20l10 13v320h-305v41h633v-41h-276z" />
    <glyph glyph-name="otilde" unicode="&#xf5;" horiz-adv-x="6" 
d="M-95 516l-172 226l47 26l160 -252h-35zM-181 516l-197 132l37 41l185 -173h-25zM-26 642v56h61v-56h-61zM29 751l-7 3.00098l-20 4l-19 2c-19.333 0 -35 -6.83301 -47 -20.5s-18 -30.5 -18 -50.5c0 -14.667 2.83301 -30.334 8.5 -47.001s13.5 -31.667 23.5 -45l14 -19
l19 -23l-38 1c-5.33301 4 -10 8.66699 -14 14l-23 36l-13 27l-13 28c-6 18 -9 34.667 -9 50c0 28 10.833 50 32.5 66s47.167 24 76.5 24l28 -3l27 -9v-40z" />
    <glyph glyph-name="odieresis" unicode="&#xf6;" 
d="M178 -23l1.00293 -3.99805l-2 -4l-5 -5c-8 0 -13.667 0.666992 -17 2l-34 11l-14 5c-8 3.33301 -13 5.66602 -15 6.99902l-18 12v5l3 7l6 7l33 16l-35 77l-10 11l-13 4l-12 -3c-1.33301 -0.666992 -2.83301 -1.33398 -4.5 -2.00098s-3.83398 -2.33398 -6.50098 -5.00098
l-8 -10l-2 -12l1 -6v-4l6 -9l3 -4l4 -3l3 -3l5 -4l-27 -12l-4 2l-2 3l-6 7l-4 7l-4 12l-1 12c0 6.66699 1.5 13.334 4.5 20.001s7.83301 13.667 14.5 21c12 10 27.333 16 46 18l13 -2l13 -6l11 -9l9 -13l34 -73l116 61c-18 0 -43 3 -75 9c-6.66699 0 -13.667 2.33301 -21 7
c-64 24 -96 70.667 -96 140c0 33.333 9.16699 61.5 27.5 84.5s42.5 34.5 72.5 34.5l162 1v88h-330v41h490v-41h-107v-127h-195c-44.667 0 -67 -27 -67 -81c0 -52 29.333 -90 88 -114c18 -5.33301 36.333 -8 55 -8l10 1l15 2l18 3l-1 9c0 6 1.66699 12 5 18
c10 36.667 28 55 54 55c21.333 0 35.333 -9.66699 42 -29l3 -18c0 -16.667 -4.66699 -32 -14 -46c-4.66699 -8 -11 -14.333 -19 -19l-22 -5l2 -13l7 -35l7 -22l12 -29l17 -27l10 -14l10 -11h-59l-18 41l-12 29c-0.666992 2.66699 -2.83398 9.16699 -6.50098 19.5
s-5.83398 16.833 -6.50098 19.5l-4 36l-159 -84z" />
    <glyph glyph-name="divide" unicode="&#xf7;" horiz-adv-x="371" 
d="M457 198l-7 -0.000976562l-8 -1h-6l-14 -2h-28c-6 0 -10 0.666992 -12 2l-6 1l-6 2l-7 2l-6 4v-28c0 -33.333 -13 -61.666 -39 -84.999c-16.667 -14.667 -32.5 -25.5 -47.5 -32.5s-29.5 -10.5 -43.5 -10.5l46 -29l53 -23l-31 -39l-78 48l-18 13l-16 13l-9 9l-24 1h-34
c-19.333 0 -34.666 7.66699 -45.999 23c-2.66699 5.33301 -5 14.333 -7 27l3 15l9 15l13 9l16 4l15 -1c4 0 9 -2 15 -6l14 -8l15 -11l10 -11l13 -16l34 7c12.667 2 21 4.66699 25 8c40 18 60 47 60 87c0 8.66699 -0.666992 13.667 -2 15l-6 10l-9 6l-12 2l-17 -2l-46 -12
l-14 -2l-22 3c-6.66699 2 -14 5.16699 -22 9.5s-15.667 9.83301 -23 16.5l-22 23c-29.333 30.667 -44 60.334 -44 89.001c0 15.333 7 28 21 38l14 5l18 2l149 1v86h-268v41h375v-41h-55v-127h-191l-7 -5l-2 -5l1 -10l5 -11l10 -17l18 -22l12 -13l13 -8l13 -4l17 -1l16 1
c10.667 0 19.667 1.33301 27 4l26 4l17 2c11.333 0 21.666 -3 30.999 -9l16 -11l10 -4l26 -8l25 -2l28 3c6.66699 1.33301 15 4.66602 25 9.99902l4 2l5 5v-50z" />
    <glyph glyph-name="oslash" unicode="&#xf8;" horiz-adv-x="203" 
d="M244 -182c-67.333 0 -110.333 22.668 -129 68.001c-7.33301 16.667 -11 34.334 -11 53.001v209c0 22 -6 44.167 -18 66.5s-29.667 40.5 -53 54.5l10 8l9 6l18 15l12 15l8 15l7 20l5 20l2 16v210c0 13.333 3 28.666 9 45.999c12 32 31.333 54.333 58 67
c15.333 6.66699 29.666 10 42.999 10l13 -2l17 -3l82 1v-31h-80c-10 0 -17.167 -0.5 -21.5 -1.5s-10.166 -3.16699 -17.499 -6.5c-24.667 -10 -42.667 -26 -54 -48c-4.66699 -14 -7 -25.667 -7 -35l-2 -223c0 -6.66699 -1.33301 -14.334 -4 -23.001
c0 -4 -0.333008 -7.33301 -1 -10s-3 -7.66699 -7 -15l-11 -18l-53 -32l10 -8l8 -4c8 -3.33301 14 -8 18 -14l13 -11l4 -7l6 -8l9 -25l7 -27l3 -21v-204c0 -28 9 -49 27 -63c12 -9.33301 29 -16 51 -20l22 -1h80v-39h-82z" />
    <glyph glyph-name="ugrave" unicode="&#xf9;" horiz-adv-x="686" 
d="M563 475h-187.999v-129h-238c-8.66699 0 -14.334 -5.66699 -17.001 -17c0 -14 5.66699 -27.667 17 -41l16 -18l13 -5l234 1v-127h163v336zM124.001 232l-17.999 19.001l-12 17c-5.33301 7.33301 -9.5 13.666 -12.5 18.999s-6.5 12.333 -10.5 21
c-4.66699 14 -7 26.333 -7 37l3 18l11 14l15 8l18 3l211 1v86h-322v41h688v-41h-73v-475h-52v100h-163v-55l-1 -11l-2 -6l-8 -6l-10 -2c-12 0 -31 13.333 -57 40c-23.333 22 -37 41.333 -41 58l1 8l5 6l8 3l12 3l39 1v84h-174c-10.667 0 -20.334 1.33301 -29.001 4h-5l-6 2z
" />
    <glyph glyph-name="OE" unicode="&#x152;" horiz-adv-x="438" 
d="M371 114c-29.333 -31.333 -67.668 -47 -115.001 -47c-44 0 -85.333 15.167 -124 45.5s-58 68.833 -58 115.5c0 34 9.33301 65 28 93s44.334 49 77.001 63c8.66699 3.33301 19 6.33301 31 9s22.667 4 32 4c46 0 86.5 -16.167 121.5 -48.5s52.5 -72.5 52.5 -120.5
c0 -44 -15 -82 -45 -114zM340.998 323c-18.667 18.667 -43 27.998 -73 27.998c-38 0 -71.333 -15.333 -100 -46s-43 -67 -43 -109c0 -12 3 -24 9 -36c4 -8.66699 11.667 -18 23 -28l34 -20c12 -4 25 -6 39 -6c26.667 0 51.667 9.33301 75 28c22 16 39 37.333 51 64
c5.33301 12 8.83301 22.333 10.5 31s2.5 17.334 2.5 26.001c0 26.667 -9.33301 49.334 -28 68.001z" />
    <glyph glyph-name="Scaron" unicode="&#x160;" horiz-adv-x="447" 
d="M435 -26c-0.666992 -2 -1.33105 -4.16797 -1.99805 -6.50098s-2.66699 -6.16602 -6 -11.499l-11 -9l-18 -11l-25 25c8 1.33301 13.333 3 16 5l11 7l7 10l3 15l-6 8l-13 7l-20 5l-29 2h-26c-38.667 0 -72.334 4.33301 -101.001 13l-29 13c-51.333 24 -77 58.333 -77 103
v13l1 9l2 10l5 13l12 30l6 12.5c2.66699 5.66699 6 11.5 10 17.5l7 11l10 13l-94 -3l-11 51h336l9 -51h-142c-8.66699 0 -20 -4 -34 -12c-24.667 -11.333 -45.667 -35 -63 -71c-6 -12 -9 -24.333 -9 -37c0 -30 12.333 -52 37 -66l40 -16l52 -4c17.333 0 42.666 -2 75.999 -6
c48 -8 74.333 -29.667 79 -65z" />
    <glyph glyph-name="Ydieresis" unicode="&#x178;" horiz-adv-x="348" 
d="M0 475v41h393v-41h-393zM258 328c-22 0 -43.167 -8.16797 -63.5 -24.501s-30.5 -37.833 -30.5 -64.5c0 -37.333 21 -80.666 63 -129.999l26 -30l38 -37l-31 -38l-42 44l-30 36c-48.667 58.667 -73 110.334 -73 155.001c0 19.333 4.33301 35.666 13 48.999l9 14l25 25
l-141 1v39h418v-39h-181z" />
    <glyph glyph-name="florin" unicode="&#x192;" horiz-adv-x="355" 
d="M288 63l-23.999 -36.001l-24 -33l-56 37l3 1l3 2l5 3l21 16l14 16c5.33301 8.66699 9.66602 16.5 12.999 23.5s7.5 17.833 12.5 32.5s8.66699 27.167 11 37.5s4.5 23.833 6.5 40.5l3 33l3 44l-15 -5l-11 -3l-24 -7l-10 -2c-26 0 -53.667 11.5 -83 34.5s-44 52.5 -44 88.5
c0 28.667 11.333 54.334 34 77.001s48.334 34 77.001 34c45.333 0 80 -24 104 -72c11.333 -24 19.666 -58.333 24.999 -103l2 -44c0 -84 -15.333 -155.667 -46 -215zM276.001 383.999c0 12 -2.33301 22.334 -7 31.001c-8 27.333 -24.667 41 -50 41
c-18 0 -35.5 -8.83301 -52.5 -26.5s-25.5 -36.834 -25.5 -57.501c0 -20 6.66699 -35.333 20 -46l22 -11l28 -4c28 0 50.667 10.667 68 32z" />
    <glyph glyph-name="circumflex" unicode="&#x2c6;" horiz-adv-x="471" 
d="M396 -119l-11 15.999l-7 11l-18 29l-42 77l-7 18l-11 -3l-10 -3c-6 0 -10 -0.666992 -12 -2h-10c-36 0 -73.667 20 -113 60c-16.667 18 -30.667 38 -42 60c-8.66699 19.333 -13 40 -13 62c0 29.333 9.33301 55.333 28 78l7 6l8 8l-21 24l-18 30l-12 31l-4 30
c0 29.333 12 52.666 36 69.999c8 4 16.667 6 26 6l155 1l23 -47h-148c-6 0 -12 -1.66699 -18 -5c-6 -2 -11.333 -6.33301 -16 -13l-10 -20c-2 -6 -3 -13.667 -3 -23c0 -8.66699 2.33301 -16.667 7 -24l16 -26l8 -10l12 -12l133 1l25 -49h-127c-16 0 -29 -9 -39 -27l-11 -27
l-3 -27c0 -42 19 -74 57 -96c14 -4.66699 26 -7 36 -7l24 4l-3 2l-5 13l-1 13c-2 22.667 9.33301 39.334 34 50.001l20 4c25.333 0 43 -11 53 -33l4 -25c0 -10 -1.16699 -18.167 -3.5 -24.5s-6.83301 -13.166 -13.5 -20.499l-12 -14l-10 -7l22 -35l26 -36l27 -35l27 -28z
" />
    <glyph glyph-name="tilde" unicode="&#x2dc;" 
d="M178 -23l1.00293 -3.99805l-2 -4l-5 -5c-8 0 -13.667 0.666992 -17 2l-34 11l-14 5c-8 3.33301 -13 5.66602 -15 6.99902l-18 12v5l3 7l6 7l33 16l-35 77l-10 11l-13 4l-12 -3c-1.33301 -0.666992 -2.83301 -1.33398 -4.5 -2.00098s-3.83398 -2.33398 -6.50098 -5.00098
l-8 -10l-2 -12l1 -6v-4l6 -9l3 -4l4 -3l3 -3l5 -4l-27 -12l-4 2l-2 3l-6 7l-4 7l-4 12l-1 12c0 6.66699 1.5 13.334 4.5 20.001s7.83301 13.667 14.5 21c12 10 27.333 16 46 18l13 -2l13 -6l11 -9l9 -13l34 -73l116 61c-18 0 -43 3 -75 9c-6.66699 0 -13.667 2.33301 -21 7
c-64 24 -96 70.667 -96 140c0 33.333 9.16699 61.5 27.5 84.5s42.5 34.5 72.5 34.5l162 1v88h-330v41h490v-41h-107v-127h-195c-44.667 0 -67 -27 -67 -81c0 -52 29.333 -90 88 -114c18 -5.33301 36.333 -8 55 -8l10 1l15 2l18 3l-1 9c0 6 1.66699 12 5 18
c10 36.667 28 55 54 55c21.333 0 35.333 -9.66699 42 -29l3 -18c0 -16.667 -4.66699 -32 -14 -46c-4.66699 -8 -11 -14.333 -19 -19l-22 -5l2 -13l7 -35l7 -22l12 -29l17 -27l10 -14l10 -11h-59l-18 41l-12 29c-0.666992 2.66699 -2.83398 9.16699 -6.50098 19.5
s-5.83398 16.833 -6.50098 19.5l-4 36l-159 -84z" />
    <glyph glyph-name="c276" unicode="&#x2010;" horiz-adv-x="168" 
d="M51 0v66h70v-66h-70z" />
    <glyph glyph-name="endash" unicode="&#x2013;" 
d="M393 475v-134.999h-184c-16 0 -32.667 -8 -50 -24l-16 -25l-5 -27c0 -60.667 29 -102 87 -124l36 -8l52 -4l-2 6v5c0 7.33301 -0.666992 12.333 -2 15l-1 11c0 11.333 0.666992 18.666 2 21.999l9 20c8.66699 12.667 22.667 19 42 19c6.66699 0 12.667 -1.66699 18 -5
c11.333 -4 20.333 -14 27 -30l4 -20c0 -21.333 -6.33301 -38 -19 -50l-8 -7l-12 -8l25 -55l17 -29l17 -23l7 -8l8 -11h-66l-27 53l-28 59l-8 -2h-7c-52.667 0 -95.5 7.83301 -128.5 23.5s-56.667 35.5 -71 59.5s-21.5 54 -21.5 90c0 30.667 9.66699 58.167 29 82.5
s43 36.5 71 36.5l148 1v92h-336v41h502v-41h-109zM449 -223.999l-13.999 -7l-21 -7l-20 -6l-21 -3l-21 -1c-10 0 -17.667 0.333008 -23 1s-13.666 3 -24.999 7c-35.333 12 -60.333 31.333 -75 58c-8 15.333 -12 31.333 -12 48c0 33.333 9.33301 59.333 28 78
c9.33301 9.33301 21.166 16.833 35.499 22.5s27.833 8.5 40.5 8.5h84v-41h-71c-16.667 0 -31.334 -6.33301 -44.001 -19c-6.66699 -6 -12 -12.667 -16 -20l-4 -25c0 -24 9.5 -42.833 28.5 -56.5s39.5 -20.5 61.5 -20.5c11.333 0 19 0.666992 23 2c8 0 15.667 2.33301 23 7
l22 12c6.66699 3.33301 10.667 7 12 11l27 -39z" />
    <glyph glyph-name="emdash" unicode="&#x2014;" horiz-adv-x="637" 
d="M357 475l-0.00195312 -150.999l18 17l12 10c20.667 16.667 44 25 70 25c37.333 0 70 -12.667 98 -38c26 -23.333 39 -53.666 39 -90.999c0 -38 -17.333 -78.667 -52 -122l-22 -27l-30 -33l-43 33c4.66699 1.33301 10 5 16 11c28 28 49.667 59.333 65 94
c7.33301 18.667 11 34.667 11 48c0 18.667 -3.33301 35 -10 49c-12 23.333 -34 35 -66 35c-27.333 0 -52.666 -14.667 -75.999 -44c-7.33301 -10 -14.666 -23 -21.999 -39c-5.33301 -14.667 -8 -27.334 -8 -38.001v-214h-52v148c-24.667 -24.667 -55.667 -37 -93 -37
s-70.666 13.167 -99.999 39.5s-44 59.166 -44 98.499c0 40 13.667 72.333 41 97c20 18 43.333 30 70 36l27 3l27 -3c13.333 -2 22.333 -4.66699 27 -8v-42l-24 8l-22 3c-24.667 0 -46 -8.66699 -64 -26c-4.66699 -4.66699 -11.334 -14.667 -20.001 -30
c-4.66699 -14 -7 -26 -7 -36c0 -28 8.33301 -51.667 25 -71c7.33301 -9.33301 17 -17 29 -23c6 -2.66699 11.333 -4.66699 16 -6s10.667 -2 18 -2c24 0 48.333 12.333 73 37c14 14 21 27.333 21 40v249h-305v41h635v-41h-278zM402.998 -198.999l-14.001 -7
c-30.667 -11.333 -58 -17 -82 -17c-19.333 0 -35.333 2.66699 -48 8c-32.667 8.66699 -58 29 -76 61c-7.33301 13.333 -11 29 -11 47c0 46 20.667 79.333 62 100c8 2 15 3.66699 21 5s12.667 2 20 2h82v-39h-68c-16 0 -30.667 -6 -44 -18
c-5.33301 -6 -10.666 -13.333 -15.999 -22l-4 -25c0 -12 2.33301 -22.333 7 -31c4 -11.333 15.333 -22.333 34 -33c13.333 -7.33301 30 -11 50 -11c30.667 0 57 9.66699 79 29l25 -39z" />
    <glyph glyph-name="quoteleft" unicode="&#x2018;" horiz-adv-x="229" 
d="M230 146c-38.667 0 -73.333 11.667 -104 35s-46 55 -46 95v199h-80v41h234v-41h-93l183 -190v-101c-22 -25.333 -53.333 -38 -94 -38zM133.001 434v-159c0 -28 8.66699 -48.667 26 -62c2 -2 6 -4.5 12 -7.5s12 -6.16699 18 -9.5c11.333 -4 23 -6 35 -6l27 3l27 9l23 15
l17 20z" />
    <glyph glyph-name="quoteright" unicode="&#x2019;" horiz-adv-x="229" 
d="M230 146c-38.667 0 -73.333 11.667 -104 35s-46 55 -46 95v199h-80v41h234v-41h-93l183 -190v-101c-22 -25.333 -53.333 -38 -94 -38zM133.001 434v-159c0 -28 8.66699 -48.667 26 -62c2 -2 6 -4.5 12 -7.5s12 -6.16699 18 -9.5c11.333 -4 23 -6 35 -6l27 3l27 9l23 15
l17 20z" />
    <glyph glyph-name="quotesinglbase" unicode="&#x201a;" horiz-adv-x="215" 
d="M141 475v-475h-53v475h-98v41h248v-41h-97zM116 588c-20.667 -7.33301 -41.999 -11 -63.999 -11c-46.667 0 -82.834 12.667 -108.501 38s-42.5 59.666 -50.5 102.999l52 1c0 -29.333 11 -55 33 -77c7.33301 -5.33301 18.666 -11.666 33.999 -18.999
c14.667 -5.33301 28.334 -8 41.001 -8c30.667 0 56.167 9.5 76.5 28.5s30.5 43.833 30.5 74.5l52 1c-6 -67.333 -38 -111 -96 -131z" />
    <glyph glyph-name="quotedblleft" unicode="&#x201c;" horiz-adv-x="371" 
d="M297 475c9.33301 -8.66699 16.333 -17.667 21 -27l16 -29l9 -31l4 -32c0 -36 -10.667 -70.167 -32 -102.5s-48 -55.166 -80 -68.499c-22.667 -9.33301 -46.334 -14 -71.001 -14l166 -138l-35 -35l-240 203l35 35l33 -27l6 -2h6l26 1c19.333 2 38 8 56 18l31 21l24 25
l16 27l5 21l2 29l-15 -13l-12 -9c-10 -8 -21.333 -14 -34 -18l-31 -5c-32 0 -58.667 10.333 -80 31c-11.333 10 -20.166 21.5 -26.499 34.5s-9.5 26.5 -9.5 40.5c0 21.333 9.33301 42.666 28 63.999l-115 1v41h369v-41h-72zM280 422c-2 6.66699 -4.66602 12 -7.99902 16
c-16 25.333 -38.333 38 -67 38c-12 0 -21 -1.66699 -27 -5c-14.667 -4 -25.667 -15 -33 -33l-4 -23c0 -20 6.33301 -36.333 19 -49s29 -19 49 -19c21.333 0 41.666 9 60.999 27l8 11l11 16z" />
    <glyph glyph-name="quotedblright" unicode="&#x201d;" horiz-adv-x="371" 
d="M297 475c9.33301 -8.66699 16.333 -17.667 21 -27l16 -29l9 -31l4 -32c0 -36 -10.667 -70.167 -32 -102.5s-48 -55.166 -80 -68.499c-22.667 -9.33301 -46.334 -14 -71.001 -14l166 -138l-35 -35l-240 203l35 35l33 -27l6 -2h6l26 1c19.333 2 38 8 56 18l31 21l24 25
l16 27l5 21l2 29l-15 -13l-12 -9c-10 -8 -21.333 -14 -34 -18l-31 -5c-32 0 -58.667 10.333 -80 31c-11.333 10 -20.166 21.5 -26.499 34.5s-9.5 26.5 -9.5 40.5c0 21.333 9.33301 42.666 28 63.999l-115 1v41h369v-41h-72zM280 422c-2 6.66699 -4.66602 12 -7.99902 16
c-16 25.333 -38.333 38 -67 38c-12 0 -21 -1.66699 -27 -5c-14.667 -4 -25.667 -15 -33 -33l-4 -23c0 -20 6.33301 -36.333 19 -49s29 -19 49 -19c21.333 0 41.666 9 60.999 27l8 11l11 16z" />
    <glyph glyph-name="quotedblbase" unicode="&#x201e;" horiz-adv-x="438" 
d="M359 -39l-33.9971 45l-28 43l-28 48l-21 48l-28 -1l-43 3c-26 4 -45.667 17 -59 39c-6 10 -9 22.667 -9 38c0 16.667 5.66699 28.667 17 36l19 12l23 4c21.333 0 40.666 -11 57.999 -33l10 -14l12 -19l18 7l14 7c48 24 72 59 72 105c0 21.333 -3.66699 38.333 -11 51
c-12.667 34 -45.334 55.333 -98.001 64l-28 2c-22 0 -45 -3 -69 -9c-14.667 -4 -30.667 -12 -48 -24l-37 60l25 6l42 9l43 7l32 2c10.667 0 21 -0.5 31 -1.5s23.333 -4.83301 40 -11.5c49.333 -22 84.333 -56 105 -102c9.33301 -22.667 14 -45.667 14 -69
c0 -36.667 -11.667 -69.667 -35 -99c-11.333 -14.667 -24 -27 -38 -37c-10.667 -8 -24.334 -15.333 -41.001 -22l23 -48c6 -13.333 15.333 -28 28 -44l33 -42l39 -39z" />
    <glyph glyph-name="dagger" unicode="&#x2020;" horiz-adv-x="426" 
d="M384 365c-3.33301 -5.33301 -9.16992 -12.501 -17.5029 -21.501s-18.166 -18.833 -29.499 -29.5c-32 -30.667 -54 -48.334 -66 -53.001c8.66699 -3.33301 18.334 -10.333 29.001 -21l32 -34c7.33301 -8.66699 14.333 -20.334 21 -35.001l6 -27
c0 -19.333 -2.5 -36 -7.5 -50s-13.5 -26 -25.5 -36c-6.66699 -6.66699 -18.667 -14.334 -36 -23.001c-10 -2.66699 -18.167 -4.5 -24.5 -5.5s-12.833 -1.5 -19.5 -1.5c-21.333 0 -43.333 8 -66 24s-39 35 -49 57c-6.66699 15.333 -10 31.333 -10 48
c0 14.667 4.16699 28.834 12.5 42.501s19.166 27.5 32.499 41.5l19 17l26 22l-39 34l-27 26c-42.667 40.667 -65 72.334 -67 95.001l37 67l47 -31l-14 -10l-13 -11l-14 -17l-4 -14c0 -19.333 18.333 -46 55 -80l22 -20l33 -25l36 27l26 21
c10.667 8.66699 19.334 16.334 26.001 23.001s14 14.834 22 24.501s13 18.834 15 27.501c0 20 -4.33301 36.667 -13 50l-5 5l-12 9l16 17l31 -26c12.667 -10.667 22.334 -27.334 29.001 -50.001l2 -19c0 -10 -5.33301 -22.667 -16 -38zM253.996 251.999l-16.001 -11l-31 -30
c-20 -18.667 -33.333 -37 -40 -55l-5 -22c0 -33.333 11.333 -56.333 34 -69l25 -5c8 0 13.833 0.5 17.5 1.5s8.83398 3.16699 15.501 6.5c23.333 12 42 31.333 56 58c2.66699 6 4.66699 11.5 6 16.5s2 11.167 2 18.5z" />
    <glyph glyph-name="daggerdbl" unicode="&#x2021;" horiz-adv-x="426" 
d="M373 -102l-139.001 87.998l-6 -8l-5 -6l-20 -11l-23 -4c-16.667 0 -28.667 3.16699 -36 9.5s-11 16.833 -11 31.5l2 13l8 13c3.33301 4 7.33301 7 12 9l15 3l41 -9l51 153l-4 -3l-4 -1l-8 -1h-16c-40 0 -73.333 21.333 -100 64c-20 30 -33 65 -39 105l-3 38
c0 17.333 1.66699 30.333 5 39c4 14.667 9 28.334 15 41.001l21 38l62 -34l-15 -19l-14 -17l-11 -17l-9 -22c-4.66699 -15.333 -7 -27.666 -7 -36.999v-38l4 -21c6 -29.333 19.333 -50 40 -62c12 -4.66699 23.333 -7 34 -7l17 1l19 6l18 6l10 6v16
c1.33301 7.33301 3 13.333 5 18l12 27c14 26 32 39 54 39l13 -3c4.66699 -2 7.66699 -4.66699 9 -8l5 -18l2 -28c0 -15.333 -4.66699 -30.333 -14 -45s-24.666 -29.667 -45.999 -45l-12 -8l-20 -7l-43 -177l147 -76z" />
    <glyph glyph-name="ellipsis" unicode="&#x2026;" horiz-adv-x="402" 
d="M336 -107l-22.001 27l-23 29l-16 22l-26 41l-14 21l-5 11l-28 1l-39 1c-22 2.66699 -39.667 12.334 -53 29.001c-5.33301 9.33301 -8 21 -8 35c0 12.667 5 23.667 15 33l16 10l19 4c12 0 29.667 -8 53 -24l25 -25c4.66699 0 10.334 1.66699 17.001 5l26 16
c24 14 36 32 36 54c0 7.33301 -1.33301 14.666 -4 21.999l-9 25l-11 20l-6 7l-109 1l-37 51h121l17 8l13 9c17.333 12 27.333 31.333 30 58c0 20.667 -7 35.667 -21 45c-10 5.33301 -19.667 8.33301 -29 9l-39 4l-31 -2h-16c-4 0 -11 -1.33301 -21 -4l-31 -5
c-6.66699 -0.666992 -11 -2 -13 -4l-29 63h158c26 0 51.667 -12 77 -36c20.667 -26 31 -54 31 -84c0 -28 -7.66699 -52 -23 -72l-10 -11l-14 -13c14 -10 25.333 -24.333 34 -43c5.33301 -11.333 8.33301 -21 9 -29l3 -28c0 -29.333 -8 -55.666 -24 -78.999
c-15.333 -20.667 -37 -34.334 -65 -41.001l6 -11l11 -16l15 -18l17 -19l16 -19l20 -21l18 -17l10 -9z" />
    <glyph glyph-name="perthousand" unicode="&#x2030;" horiz-adv-x="471" 
d="M433 192c-20 -66.667 -54.667 -113.334 -104 -140.001c-26.667 -13.333 -55 -20 -85 -20c-79.333 0 -136.666 47 -171.999 141c-12 30 -20 59 -24 87l-11 75l-3 77v37l1 10c0 4.66699 0.666992 8.33398 2 11.001l41 14l-2 -3v-5l-2 -9l-1 -10v-12
c0 -4.66699 -0.666992 -9.66699 -2 -15v-27c0 -109.333 16.667 -192.333 50 -249c27.333 -47.333 64.333 -71 111 -71c36 0 70.667 16 104 48l17 21l22 35c-28 0 -58.833 11.167 -92.5 33.5s-57.834 48.833 -72.501 79.5c-10 20 -15 42.667 -15 68c0 30 10.5 56.667 31.5 80
s47.167 35 78.5 35c63.333 0 107.333 -40.667 132 -122c2.66699 -9.33301 5 -20.5 7 -33.5s3 -25.5 3 -37.5c0 -35.333 -4.66699 -68 -14 -98zM397 345c-0.666992 9.33301 -5.33105 21.499 -13.998 36.499s-18.334 26.333 -29.001 34s-22.667 11.5 -36 11.5
c-22 0 -38.333 -7.33301 -49 -22c-6 -7.33301 -11 -15.666 -15 -24.999l-4 -29c0 -46 19.333 -80.333 58 -103c27.333 -16 55.666 -24 84.999 -24l9 85c0 12 -1.66699 24 -5 36z" />
    <glyph glyph-name="guilsinglleft" unicode="&#x2039;" horiz-adv-x="447" 
d="M436 -33c0 -4 -2.33203 -8.66406 -6.99902 -13.9971l-10 -7l-15 -10l-19 15l14 8l6 3l7 10l2 14l-2 6l-7 5l-11 5l-14 5l-36 9l-43 3l-46 3c-8.66699 0 -15.5 0.5 -20.5 1.5s-13.5 3.5 -25.5 7.5c-33.333 10 -58 31.667 -74 65c-10.667 24.667 -16 55 -16 91
c0 24 6 44 18 60l7 9l12 11l-88 -1l-13 52h117l-7 3l-6 5l-8 8c-6 6.66699 -11.167 16.167 -15.5 28.5s-6.5 24.5 -6.5 36.5c0 38 13.333 63.333 40 76c11.333 5.33301 24.666 9.66602 39.999 12.999l53 4h60l8 -49l-18 1c-6.66699 0 -11 0.666992 -13 2l-32 3l-25 1
c-22 0 -41.5 -7.33301 -58.5 -22s-25.5 -32.667 -25.5 -54c0 -10.667 4.33301 -21.334 13 -32.001l9 -10l9 -7l14 -8l190 1l9 -50h-158c-15.333 0 -34.333 -13.667 -57 -41c-16 -20 -26.333 -38.667 -31 -56l-2 -20c0 -32.667 9.33301 -54.334 28 -65.001
c6.66699 -3.33301 16.667 -6.66602 30 -9.99902l42 -3l35 1c20 0 34.167 -0.5 42.5 -1.5s17.5 -3.16699 27.5 -6.5c35.333 -8 59.333 -23.667 72 -47c5.33301 -10.667 8 -22.334 8 -35.001z" />
    <glyph glyph-name="guilsinglright" unicode="&#x203a;" horiz-adv-x="6" 
d="M-95 516l-172 226l47 26l160 -252h-35zM-181 516l-197 132l37 41l185 -173h-25zM-26 642v56h61v-56h-61zM29 751l-7 3.00098l-20 4l-19 2c-19.333 0 -35 -6.83301 -47 -20.5s-18 -30.5 -18 -50.5c0 -14.667 2.83301 -30.334 8.5 -47.001s13.5 -31.667 23.5 -45l14 -19
l19 -23l-38 1c-5.33301 4 -10 8.66699 -14 14l-23 36l-13 27l-13 28c-6 18 -9 34.667 -9 50c0 28 10.833 50 32.5 66s47.167 24 76.5 24l28 -3l27 -9v-40z" />
    <glyph glyph-name="trademark" unicode="&#x2122;" horiz-adv-x="290" 
d="M0 516h404v-39l-404 -2v41zM195 123l30 -50.998l1 -9l1 -5c0 -8 -2 -13 -6 -15l-8 -2l-10 -1l-14 1c-7.33301 0 -13.333 1.33301 -18 4l-23 6l-27 12l-18 9l-13 11l-7 10l-2 11c0 11.333 7 22.666 21 33.999l4 3l7 4l242 103l-18 20l-14 16
c-11.333 13.333 -23.333 24.666 -36 33.999c-11.333 10.667 -21 17.667 -29 21l-15 6l-16 4l-18 2l-16 1l-24 -1l-22 -3l-9 -2l-11 -3l4 -72l-3 -11l-3 -6l-7 -6l-8 -2l-10 2l-13 8l-15 13l-17 18l-28 36l-6 10l-2 10c0 8 4.66699 15.667 14 23l43 17l59 10l64 4
c15.333 0 27.5 -0.333008 36.5 -1s18 -3 27 -7s18.167 -10.667 27.5 -20c16 -12.667 30.333 -27 43 -43l20 -24l28 -32v-47z" />
    <glyph glyph-name=".null" horiz-adv-x="0" 
 />
    <glyph glyph-name="nonmarkingreturn" horiz-adv-x="379" 
 />
  </font>
</defs>
</svg>
